  0
SECTION
  2
HEADER
  9
$ACADVER
  1
AC1018
  9
$ACADMAINTVER
 70
     0
  9
$DWGCODEPAGE
  3
ANSI_1252
  9
$INSBASE
 10
0.0
 20
0.0
 30
0.0
  9
$EXTMIN
 10
-415.499999999989
 20
-267.0000000000051
 30
0.0
  9
$EXTMAX
 10
-118.4999999999909
 20
-57.000000000005
 30
0.0
  9
$LIMMIN
 10
0.0
 20
0.0
  9
$LIMMAX
 10
12.0
 20
9.0
  9
$ORTHOMODE
 70
     0
  9
$REGENMODE
 70
     1
  9
$FILLMODE
 70
     1
  9
$QTEXTMODE
 70
     0
  9
$MIRRTEXT
 70
     1
  9
$LTSCALE
 40
1.0
  9
$ATTMODE
 70
     1
  9
$TEXTSIZE
 40
0.2
  9
$TRACEWID
 40
0.05
  9
$TEXTSTYLE
  7
Standard
  9
$CLAYER
  8
0
  9
$CELTYPE
  6
ByLayer
  9
$CECOLOR
 62
   256
  9
$CELTSCALE
 40
1.0
  9
$DISPSILH
 70
     0
  9
$DIMSCALE
 40
1.0
  9
$DIMASZ
 40
0.18
  9
$DIMEXO
 40
0.0625
  9
$DIMDLI
 40
0.38
  9
$DIMRND
 40
0.0
  9
$DIMDLE
 40
0.0
  9
$DIMEXE
 40
0.18
  9
$DIMTP
 40
0.0
  9
$DIMTM
 40
0.0
  9
$DIMTXT
 40
0.18
  9
$DIMCEN
 40
0.09
  9
$DIMTSZ
 40
0.0
  9
$DIMTOL
 70
     0
  9
$DIMLIM
 70
     0
  9
$DIMTIH
 70
     1
  9
$DIMTOH
 70
     1
  9
$DIMSE1
 70
     0
  9
$DIMSE2
 70
     0
  9
$DIMTAD
 70
     0
  9
$DIMZIN
 70
     0
  9
$DIMBLK
  1

  9
$DIMASO
 70
     1
  9
$DIMSHO
 70
     1
  9
$DIMPOST
  1

  9
$DIMAPOST
  1

  9
$DIMALT
 70
     0
  9
$DIMALTD
 70
     2
  9
$DIMALTF
 40
25.4
  9
$DIMLFAC
 40
1.0
  9
$DIMTOFL
 70
     0
  9
$DIMTVP
 40
0.0
  9
$DIMTIX
 70
     0
  9
$DIMSOXD
 70
     0
  9
$DIMSAH
 70
     0
  9
$DIMBLK1
  1

  9
$DIMBLK2
  1

  9
$DIMSTYLE
  2
Standard
  9
$DIMCLRD
 70
     0
  9
$DIMCLRE
 70
     0
  9
$DIMCLRT
 70
     0
  9
$DIMTFAC
 40
1.0
  9
$DIMGAP
 40
0.09
  9
$DIMJUST
 70
     0
  9
$DIMSD1
 70
     0
  9
$DIMSD2
 70
     0
  9
$DIMTOLJ
 70
     1
  9
$DIMTZIN
 70
     0
  9
$DIMALTZ
 70
     0
  9
$DIMALTTZ
 70
     0
  9
$DIMUPT
 70
     0
  9
$DIMDEC
 70
     4
  9
$DIMTDEC
 70
     4
  9
$DIMALTU
 70
     2
  9
$DIMALTTD
 70
     2
  9
$DIMTXSTY
  7
Standard
  9
$DIMAUNIT
 70
     0
  9
$DIMADEC
 70
     0
  9
$DIMALTRND
 40
0.0
  9
$DIMAZIN
 70
     0
  9
$DIMDSEP
 70
    46
  9
$DIMATFIT
 70
     3
  9
$DIMFRAC
 70
     0
  9
$DIMLDRBLK
  1

  9
$DIMLUNIT
 70
     2
  9
$DIMLWD
 70
    -2
  9
$DIMLWE
 70
    -2
  9
$DIMTMOVE
 70
     0
  9
$LUNITS
 70
     2
  9
$LUPREC
 70
     4
  9
$SKETCHINC
 40
0.1
  9
$FILLETRAD
 40
0.5
  9
$AUNITS
 70
     0
  9
$AUPREC
 70
     0
  9
$MENU
  1
.
  9
$ELEVATION
 40
0.0
  9
$PELEVATION
 40
0.0
  9
$THICKNESS
 40
0.0
  9
$LIMCHECK
 70
     0
  9
$CHAMFERA
 40
0.5
  9
$CHAMFERB
 40
0.5
  9
$CHAMFERC
 40
1.0
  9
$CHAMFERD
 40
0.0
  9
$SKPOLY
 70
     0
  9
$TDCREATE
 40
2458159.51722
  9
$TDUCREATE
 40
2458159.475553333
  9
$TDUPDATE
 40
2458159.517220533
  9
$TDUUPDATE
 40
2458159.475553866
  9
$TDINDWG
 40
0.0000000116
  9
$TDUSRTIMER
 40
0.0000000116
  9
$USRTIMER
 70
     1
  9
$ANGBASE
 50
0.0
  9
$ANGDIR
 70
     0
  9
$PDMODE
 70
     0
  9
$PDSIZE
 40
0.0
  9
$PLINEWID
 40
0.0
  9
$SPLFRAME
 70
     0
  9
$SPLINETYPE
 70
     6
  9
$SPLINESEGS
 70
     8
  9
$HANDSEED
  5
42A
  9
$SURFTAB1
 70
     6
  9
$SURFTAB2
 70
     6
  9
$SURFTYPE
 70
     6
  9
$SURFU
 70
     6
  9
$SURFV
 70
     6
  9
$UCSBASE
  2

  9
$UCSNAME
  2

  9
$UCSORG
 10
0.0
 20
0.0
 30
0.0
  9
$UCSXDIR
 10
1.0
 20
0.0
 30
0.0
  9
$UCSYDIR
 10
0.0
 20
1.0
 30
0.0
  9
$UCSORTHOREF
  2

  9
$UCSORTHOVIEW
 70
     0
  9
$UCSORGTOP
 10
0.0
 20
0.0
 30
0.0
  9
$UCSORGBOTTOM
 10
0.0
 20
0.0
 30
0.0
  9
$UCSORGLEFT
 10
0.0
 20
0.0
 30
0.0
  9
$UCSORGRIGHT
 10
0.0
 20
0.0
 30
0.0
  9
$UCSORGFRONT
 10
0.0
 20
0.0
 30
0.0
  9
$UCSORGBACK
 10
0.0
 20
0.0
 30
0.0
  9
$PUCSBASE
  2

  9
$PUCSNAME
  2

  9
$PUCSORG
 10
0.0
 20
0.0
 30
0.0
  9
$PUCSXDIR
 10
1.0
 20
0.0
 30
0.0
  9
$PUCSYDIR
 10
0.0
 20
1.0
 30
0.0
  9
$PUCSORTHOREF
  2

  9
$PUCSORTHOVIEW
 70
     0
  9
$PUCSORGTOP
 10
0.0
 20
0.0
 30
0.0
  9
$PUCSORGBOTTOM
 10
0.0
 20
0.0
 30
0.0
  9
$PUCSORGLEFT
 10
0.0
 20
0.0
 30
0.0
  9
$PUCSORGRIGHT
 10
0.0
 20
0.0
 30
0.0
  9
$PUCSORGFRONT
 10
0.0
 20
0.0
 30
0.0
  9
$PUCSORGBACK
 10
0.0
 20
0.0
 30
0.0
  9
$USERI1
 70
     0
  9
$USERI2
 70
     0
  9
$USERI3
 70
     0
  9
$USERI4
 70
     0
  9
$USERI5
 70
     0
  9
$USERR1
 40
18.1
  9
$USERR2
 40
0.0
  9
$USERR3
 40
0.0
  9
$USERR4
 40
0.0
  9
$USERR5
 40
0.0
  9
$WORLDVIEW
 70
     1
  9
$SHADEDGE
 70
     3
  9
$SHADEDIF
 70
    70
  9
$TILEMODE
 70
     1
  9
$MAXACTVP
 70
    64
  9
$PINSBASE
 10
0.0
 20
0.0
 30
0.0
  9
$PLIMCHECK
 70
     0
  9
$PEXTMIN
 10
1.00000000000000E+20
 20
1.00000000000000E+20
 30
1.00000000000000E+20
  9
$PEXTMAX
 10
-1.00000000000000E+20
 20
-1.00000000000000E+20
 30
-1.00000000000000E+20
  9
$PLIMMIN
 10
0.0
 20
0.0
  9
$PLIMMAX
 10
12.0
 20
9.0
  9
$UNITMODE
 70
     0
  9
$VISRETAIN
 70
     1
  9
$PLINEGEN
 70
     0
  9
$PSLTSCALE
 70
     1
  9
$TREEDEPTH
 70
  3020
  9
$CMLSTYLE
  2
Standard
  9
$CMLJUST
 70
     0
  9
$CMLSCALE
 40
1.0
  9
$PROXYGRAPHICS
 70
     1
  9
$MEASUREMENT
 70
     1
  9
$CELWEIGHT
370
    -1
  9
$ENDCAPS
280
     0
  9
$JOINSTYLE
280
     0
  9
$LWDISPLAY
290
     0
  9
$INSUNITS
 70
     4
  9
$HYPERLINKBASE
  1

  9
$STYLESHEET
  1

  9
$XEDIT
290
     1
  9
$CEPSNTYPE
380
     0
  9
$PSTYLEMODE
290
     1
  9
$FINGERPRINTGUID
  2
{8B5453C5-DF66-4152-9597-2907AB1E8110}
  9
$VERSIONGUID
  2
{FAEB1C32-E019-11D5-929B-00C0DF256EC4}
  9
$EXTNAMES
290
     1
  9
$PSVPSCALE
 40
0.0
  9
$OLESTARTUP
290
     0
  9
$SORTENTS
280
   127
  9
$INDEXCTL
280
     0
  9
$HIDETEXT
280
     1
  9
$XCLIPFRAME
290
     0
  9
$HALOGAP
280
     0
  9
$OBSCOLOR
 70
   257
  9
$OBSLTYPE
280
     0
  9
$INTERSECTIONDISPLAY
280
     0
  9
$INTERSECTIONCOLOR
 70
   257
  9
$DIMASSOC
280
     2
  9
$PROJECTNAME
  1

  0
ENDSEC
  0
SECTION
  2
CLASSES
  0
CLASS
  1
ACDBDICTIONARYWDFLT
  2
AcDbDictionaryWithDefault
  3
ObjectDBX Classes
 90
        0
 91
        4
280
     0
281
     0
  0
CLASS
  1
VISUALSTYLE
  2
AcDbVisualStyle
  3
ObjectDBX Classes
 90
     4095
 91
        4
280
     0
281
     0
  0
CLASS
  1
MATERIAL
  2
AcDbMaterial
  3
ObjectDBX Classes
 90
     1153
 91
        4
280
     0
281
     0
  0
ENDSEC
  0
SECTION
  2
TABLES
  0
TABLE
  2
VPORT
  5
8
330
0
100
AcDbSymbolTable
 70
     1
  0
VPORT
  5
29
330
8
100
AcDbSymbolTableRecord
100
AcDbViewportTableRecord
  2
*Active
 70
     0
 10
0.0
 20
0.0
 11
1.0
 21
1.0
 12
-266.9999999999899
 22
-162.0000000000051
 13
0.0
 23
0.0
 14
0.5
 24
0.5
 15
0.5
 25
0.5
 16
0.0
 26
0.0
 36
1.0
 17
0.0
 27
0.0
 37
0.0
 40
231.0000000000001
 41
1.60267857142857
 42
50.0
 43
0.0
 44
0.0
 50
0.0
 51
0.0
 71
     0
 72
   100
 73
     1
 74
     3
 75
     0
 76
     0
 77
     0
 78
     0
281
     0
 65
     1
110
0.0
120
0.0
130
0.0
111
1.0
121
0.0
131
0.0
112
0.0
122
1.0
132
0.0
 79
     0
146
0.0
  0
ENDTAB
  0
TABLE
  2
LTYPE
  5
5
330
0
100
AcDbSymbolTable
 70
     8
  0
LTYPE
  5
14
330
5
100
AcDbSymbolTableRecord
100
AcDbLinetypeTableRecord
  2
ByBlock
 70
     0
  3

 72
    65
 73
     0
 40
0.0
  0
LTYPE
  5
15
330
5
100
AcDbSymbolTableRecord
100
AcDbLinetypeTableRecord
  2
ByLayer
 70
     0
  3

 72
    65
 73
     0
 40
0.0
  0
LTYPE
  5
16
330
5
100
AcDbSymbolTableRecord
100
AcDbLinetypeTableRecord
  2
Continuous
 70
     0
  3
Solid line
 72
    65
 73
     0
 40
0.0
  0
LTYPE
  5
3F
330
5
100
AcDbSymbolTableRecord
100
AcDbLinetypeTableRecord
  2
DASHED
 70
     0
  3
Dashed
 72
    65
 73
     2
 40
15.0
 49
7.0
 74
     0
 49
-8.0
 74
     0
  0
LTYPE
  5
40
330
5
100
AcDbSymbolTableRecord
100
AcDbLinetypeTableRecord
  2
DOTTED
 70
     0
  3
Dotted
 72
    65
 73
     2
 40
1.0
 49
0.0
 74
     0
 49
-1.0
 74
     0
  0
LTYPE
  5
41
330
5
100
AcDbSymbolTableRecord
100
AcDbLinetypeTableRecord
  2
DOT_CENTER
 70
     0
  3
Dot_Center
 72
    65
 73
     4
 40
14.0
 49
12.0
 74
     0
 49
-1.0
 74
     0
 49
0.0
 74
     0
 49
-1.0
 74
     0
  0
LTYPE
  5
42
330
5
100
AcDbSymbolTableRecord
100
AcDbLinetypeTableRecord
  2
LONG_DASHED
 70
     0
  3
Long_Dashed
 72
    65
 73
     2
 40
15.0
 49
10.0
 74
     0
 49
-5.0
 74
     0
  0
LTYPE
  5
43
330
5
100
AcDbSymbolTableRecord
100
AcDbLinetypeTableRecord
  2
DASH_CENTER
 70
     0
  3
Dash_Center
 72
    65
 73
     4
 40
14.0
 49
11.0
 74
     0
 49
-1.0
 74
     0
 49
1.0
 74
     0
 49
-1.0
 74
     0
  0
LTYPE
  5
44
330
5
100
AcDbSymbolTableRecord
100
AcDbLinetypeTableRecord
  2
PHANTOM
 70
     0
  3
Phantom
 72
    65
 73
     6
 40
13.0
 49
10.0
 74
     0
 49
-1.0
 74
     0
 49
0.0
 74
     0
 49
-1.0
 74
     0
 49
0.0
 74
     0
 49
-1.0
 74
     0
  0
LTYPE
  5
45
330
5
100
AcDbSymbolTableRecord
100
AcDbLinetypeTableRecord
  2
CENTER_DASH_DASH
 70
     0
  3
Center_Dash_Dash
 72
    65
 73
     6
 40
14.0
 49
9.0
 74
     0
 49
-1.0
 74
     0
 49
1.0
 74
     0
 49
-1.0
 74
     0
 49
1.0
 74
     0
 49
-1.0
 74
     0
  0
ENDTAB
  0
TABLE
  2
LAYER
  5
2
330
0
100
AcDbSymbolTable
 70
     2
  0
LAYER
  5
10
330
2
100
AcDbSymbolTableRecord
100
AcDbLayerTableRecord
  2
0
 70
     0
 62
     7
  6
Continuous
370
    -3
390
F
  0
LAYER
  5
46
330
2
100
AcDbSymbolTableRecord
100
AcDbLayerTableRecord
  2
1
 70
     0
 62
     7
  6
Continuous
370
    -3
390
F
  0
ENDTAB
  0
TABLE
  2
STYLE
  5
3
330
0
100
AcDbSymbolTable
 70
     5
  0
STYLE
  5
11
330
3
100
AcDbSymbolTableRecord
100
AcDbTextStyleTableRecord
  2
Standard
 70
     0
 40
0.0
 41
1.0
 50
0.0
 71
     0
 42
0.2
  3
txt
  4

  0
STYLE
  5
122
330
3
100
AcDbSymbolTableRecord
100
AcDbTextStyleTableRecord
  2
CONVERTER_11
 70
     0
 40
0.0
 41
0.9
 50
0.0
 71
     0
 42
0.2
  3
txt.shx
  4

  0
STYLE
  5
3C0
330
3
100
AcDbSymbolTableRecord
100
AcDbTextStyleTableRecord
  2
CONVERTER_12
 70
     0
 40
0.0
 41
0.81
 50
0.0
 71
     0
 42
0.2
  3
txt.shx
  4

  0
STYLE
  5
3C6
330
3
100
AcDbSymbolTableRecord
100
AcDbTextStyleTableRecord
  2
CONVERTER_13
 70
     0
 40
0.0
 41
0.855
 50
0.0
 71
     0
 42
0.2
  3
txt.shx
  4

  0
STYLE
  5
3C9
330
3
100
AcDbSymbolTableRecord
100
AcDbTextStyleTableRecord
  2
CONVERTER_14
 70
     0
 40
0.0
 41
0.72
 50
0.0
 71
     0
 42
0.2
  3
txt.shx
  4

  0
ENDTAB
  0
TABLE
  2
VIEW
  5
6
330
0
100
AcDbSymbolTable
 70
     0
  0
ENDTAB
  0
TABLE
  2
UCS
  5
7
330
0
100
AcDbSymbolTable
 70
     0
  0
ENDTAB
  0
TABLE
  2
APPID
  5
9
330
0
100
AcDbSymbolTable
 70
     1
  0
APPID
  5
12
330
9
100
AcDbSymbolTableRecord
100
AcDbRegAppTableRecord
  2
ACAD
 70
     0
  0
ENDTAB
  0
TABLE
  2
DIMSTYLE
  5
A
330
0
100
AcDbSymbolTable
 70
     7
100
AcDbDimStyleTable
  0
DIMSTYLE
105
27
330
A
100
AcDbSymbolTableRecord
100
AcDbDimStyleTableRecord
  2
Standard
 70
     0
178
     0
340
11
  0
DIMSTYLE
105
18E
102
{ACAD_REACTORS
330
18F
102
}
330
A
100
AcDbSymbolTableRecord
100
AcDbDimStyleTableRecord
  2
ME10_DIM_10
 70
     0
 41
1.75
 42
0.0
 44
0.75
 73
     0
 74
     0
 77
     1
 78
     8
140
1.75
147
0.75
172
     1
173
     1
174
     1
175
     1
176
     2
177
     2
178
     3
340
122
  0
DIMSTYLE
105
29B
102
{ACAD_REACTORS
330
29C
102
}
330
A
100
AcDbSymbolTableRecord
100
AcDbDimStyleTableRecord
  2
ME10_DIM_11
 70
     0
 41
1.75
 42
0.0
 44
0.75
 73
     0
 74
     0
 77
     1
 78
     8
140
1.75
147
0.75
172
     1
173
     1
174
     1
175
     1
176
     2
177
     2
178
     3
340
122
  0
DIMSTYLE
105
2A6
102
{ACAD_REACTORS
330
2A7
102
}
330
A
100
AcDbSymbolTableRecord
100
AcDbDimStyleTableRecord
  2
ME10_DIM_12
 70
     0
 41
1.75
 42
0.0
 44
0.75
 73
     0
 74
     0
 77
     1
 78
     8
140
1.75
147
0.75
172
     1
173
     1
174
     1
175
     1
176
     2
177
     2
178
     3
340
122
  0
DIMSTYLE
105
2B1
102
{ACAD_REACTORS
330
2B2
102
}
330
A
100
AcDbSymbolTableRecord
100
AcDbDimStyleTableRecord
  2
ME10_DIM_13
 70
     0
 41
1.75
 42
0.0
 44
0.75
 73
     0
 74
     0
 77
     1
 78
     8
140
1.75
147
0.75
172
     1
173
     1
174
     1
175
     1
176
     2
177
     2
178
     3
340
122
  0
DIMSTYLE
105
2BC
102
{ACAD_REACTORS
330
2BD
102
}
330
A
100
AcDbSymbolTableRecord
100
AcDbDimStyleTableRecord
  2
ME10_DIM_14
 70
     0
 41
1.75
 42
0.0
 44
0.75
 73
     0
 74
     0
 77
     1
 78
     8
140
1.75
147
0.75
172
     1
173
     1
174
     1
175
     1
176
     2
177
     2
178
     3
340
122
  0
DIMSTYLE
105
2C7
102
{ACAD_REACTORS
330
2C8
102
}
330
A
100
AcDbSymbolTableRecord
100
AcDbDimStyleTableRecord
  2
ME10_DIM_15
 70
     0
 41
1.75
 42
0.0
 44
0.75
 73
     0
 74
     0
 77
     1
 78
     8
140
1.75
147
0.75
172
     1
173
     1
174
     1
175
     1
176
     2
177
     2
178
     3
340
122
  0
ENDTAB
  0
TABLE
  2
BLOCK_RECORD
  5
1
330
0
100
AcDbSymbolTable
 70
    23
  0
BLOCK_RECORD
  5
1F
330
1
100
AcDbSymbolTableRecord
100
AcDbBlockTableRecord
  2
*Model_Space
340
22
  0
BLOCK_RECORD
  5
1B
330
1
100
AcDbSymbolTableRecord
100
AcDbBlockTableRecord
  2
*Paper_Space
340
1E
  0
BLOCK_RECORD
  5
23
330
1
100
AcDbSymbolTableRecord
100
AcDbBlockTableRecord
  2
*Paper_Space0
340
26
  0
BLOCK_RECORD
  5
47
330
1
100
AcDbSymbolTableRecord
100
AcDbBlockTableRecord
  2
MSBV_2_5_NS_35_YE-select__1
340
0
102
{BLKREFS
331
4B
102
}
  0
BLOCK_RECORD
  5
4A
330
1
100
AcDbSymbolTableRecord
100
AcDbBlockTableRecord
  2
Allg1
340
0
102
{BLKREFS
331
7D
102
}
  0
BLOCK_RECORD
  5
4E
330
1
100
AcDbSymbolTableRecord
100
AcDbBlockTableRecord
  2
MSBV_2_5_NS_35_YE-select__2
340
0
102
{BLKREFS
331
52
102
}
  0
BLOCK_RECORD
  5
51
330
1
100
AcDbSymbolTableRecord
100
AcDbBlockTableRecord
  2
Drfsicht1
340
0
102
{BLKREFS
331
7E
102
}
  0
BLOCK_RECORD
  5
55
330
1
100
AcDbSymbolTableRecord
100
AcDbBlockTableRecord
  2
MSBV_2_5_NS_35_YE-select__3
340
0
102
{BLKREFS
331
59
102
}
  0
BLOCK_RECORD
  5
58
330
1
100
AcDbSymbolTableRecord
100
AcDbBlockTableRecord
  2
Rckans1
340
0
102
{BLKREFS
331
7F
102
}
  0
BLOCK_RECORD
  5
5C
330
1
100
AcDbSymbolTableRecord
100
AcDbBlockTableRecord
  2
MSBV_2_5_NS_35_YE-select__4
340
0
102
{BLKREFS
331
60
102
}
  0
BLOCK_RECORD
  5
5F
330
1
100
AcDbSymbolTableRecord
100
AcDbBlockTableRecord
  2
SA_Links1
340
0
102
{BLKREFS
331
80
102
}
  0
BLOCK_RECORD
  5
63
330
1
100
AcDbSymbolTableRecord
100
AcDbBlockTableRecord
  2
MSBV_2_5_NS_35_YE-select__5
340
0
102
{BLKREFS
331
67
102
}
  0
BLOCK_RECORD
  5
66
330
1
100
AcDbSymbolTableRecord
100
AcDbBlockTableRecord
  2
SA_Rechts1
340
0
102
{BLKREFS
331
81
102
}
  0
BLOCK_RECORD
  5
6A
330
1
100
AcDbSymbolTableRecord
100
AcDbBlockTableRecord
  2
MSBV_2_5_NS_35_YE-select__6
340
0
102
{BLKREFS
331
6E
102
}
  0
BLOCK_RECORD
  5
6D
330
1
100
AcDbSymbolTableRecord
100
AcDbBlockTableRecord
  2
Vordans1
340
0
102
{BLKREFS
331
82
102
}
  0
BLOCK_RECORD
  5
71
330
1
100
AcDbSymbolTableRecord
100
AcDbBlockTableRecord
  2
_rahmen
340
0
102
{BLKREFS
331
78
102
}
  0
BLOCK_RECORD
  5
74
330
1
100
AcDbSymbolTableRecord
100
AcDbBlockTableRecord
  2
_punkt
340
0
102
{BLKREFS
331
79
102
}
  0
BLOCK_RECORD
  5
77
330
1
100
AcDbSymbolTableRecord
100
AcDbBlockTableRecord
  2
A4I_CS
340
0
102
{BLKREFS
331
83
102
}
  0
BLOCK_RECORD
  5
7C
330
1
100
AcDbSymbolTableRecord
100
AcDbBlockTableRecord
  2
1
340
0
102
{BLKREFS
331
86
102
}
  0
BLOCK_RECORD
  5
184
330
1
100
AcDbSymbolTableRecord
100
AcDbBlockTableRecord
  2
*D17
340
0
  0
BLOCK_RECORD
  5
292
330
1
100
AcDbSymbolTableRecord
100
AcDbBlockTableRecord
  2
*D18
340
0
  0
BLOCK_RECORD
  5
29D
330
1
100
AcDbSymbolTableRecord
100
AcDbBlockTableRecord
  2
*D19
340
0
  0
BLOCK_RECORD
  5
2A8
330
1
100
AcDbSymbolTableRecord
100
AcDbBlockTableRecord
  2
*D20
340
0
  0
BLOCK_RECORD
  5
2B3
330
1
100
AcDbSymbolTableRecord
100
AcDbBlockTableRecord
  2
*D21
340
0
  0
BLOCK_RECORD
  5
2BE
330
1
100
AcDbSymbolTableRecord
100
AcDbBlockTableRecord
  2
*D22
340
0
  0
ENDTAB
  0
ENDSEC
  0
SECTION
  2
BLOCKS
  0
BLOCK
  5
20
330
1F
100
AcDbEntity
  8
0
100
AcDbBlockBegin
  2
*Model_Space
 70
     0
 10
0.0
 20
0.0
 30
0.0
  3
*Model_Space
  1

  0
ENDBLK
  5
21
330
1F
100
AcDbEntity
  8
0
100
AcDbBlockEnd
  0
BLOCK
  5
1C
330
1B
100
AcDbEntity
 67
     1
  8
0
100
AcDbBlockBegin
  2
*Paper_Space
 70
     0
 10
0.0
 20
0.0
 30
0.0
  3
*Paper_Space
  1

  0
ENDBLK
  5
1D
330
1B
100
AcDbEntity
 67
     1
  8
0
100
AcDbBlockEnd
  0
BLOCK
  5
24
330
23
100
AcDbEntity
  8
0
100
AcDbBlockBegin
  2
*Paper_Space0
 70
     0
 10
0.0
 20
0.0
 30
0.0
  3
*Paper_Space0
  1

  0
ENDBLK
  5
25
330
23
100
AcDbEntity
  8
0
100
AcDbBlockEnd
  0
BLOCK
  5
48
330
47
100
AcDbEntity
  8
0
100
AcDbBlockBegin
  2
MSBV_2_5_NS_35_YE-select__1
 70
     0
 10
-104.2771424848687
 20
-116.3366708655411
 30
0.0
  3
MSBV_2_5_NS_35_YE-select__1
  1

  0
LINE
  5
87
330
47
100
AcDbEntity
  8
0
  6
Continuous
 62
     7
100
AcDbLine
 10
-64.72285774327108
 20
-109.733227161697
 30
0.0
 11
-64.72285774327298
 21
-106.1234144122458
 31
0.0
  0
LINE
  5
88
330
47
100
AcDbEntity
  8
0
  6
Continuous
 62
     7
100
AcDbLine
 10
-64.72285774327108
 20
-109.733227161697
 30
0.0
 11
-65.67285774326578
 21
-110.5559512952872
 31
0.0
  0
LINE
  5
89
330
47
100
AcDbEntity
  8
0
  6
Continuous
 62
     7
100
AcDbLine
 10
-66.34785774326309
 20
-116.3366708655411
 30
0.0
 11
-65.67285774326308
 21
-115.7521037179866
 31
0.0
  0
LINE
  5
8A
330
47
100
AcDbEntity
  8
0
  6
Continuous
 62
     7
100
AcDbLine
 10
-65.67285774326308
 20
-115.7521037179866
 30
0.0
 11
-65.67285774326578
 21
-110.5559512952872
 31
0.0
  0
LINE
  5
8B
330
47
100
AcDbEntity
  8
0
  6
Continuous
 62
     7
100
AcDbLine
 10
-68.65826564277788
 20
-115.6697135541815
 30
0.0
 11
-66.34785774326309
 21
-116.3366708655411
 31
0.0
  0
LINE
  5
8C
330
47
100
AcDbEntity
  8
0
  6
Continuous
 62
     7
100
AcDbLine
 10
-67.29785774327317
 20
-108.3534298269908
 30
0.0
 11
-67.2978577432713
 21
-111.9632425764422
 31
0.0
  0
LINE
  5
8D
330
47
100
AcDbEntity
  8
0
  6
Continuous
 62
     7
100
AcDbLine
 10
-67.29785774327317
 20
-108.3534298269908
 30
0.0
 11
-64.72285774327298
 21
-106.1234144122458
 31
0.0
  0
LINE
  5
8E
330
47
100
AcDbEntity
  8
0
  6
Continuous
 62
     7
100
AcDbLine
 10
-64.72285774327298
 20
-106.1234144122458
 30
0.0
 11
-68.61997206030489
 21
-97.34989691249172
 31
0.0
  0
LINE
  5
8F
330
47
100
AcDbEntity
  8
0
  6
Continuous
 62
     7
100
AcDbLine
 10
-65.6728577432655
 20
-111.1044340510146
 30
0.0
 11
-64.72285774327108
 21
-109.733227161697
 31
0.0
  0
LINE
  5
90
330
47
100
AcDbEntity
  8
0
  6
Continuous
 62
     7
100
AcDbLine
 10
-102.9781043791916
 20
-105.5603568934795
 30
0.0
 11
-101.2460535716225
 21
-104.0603568934783
 31
0.0
  0
LINE
  5
91
330
47
100
AcDbEntity
  8
0
  6
Continuous
 62
     7
100
AcDbLine
 10
-102.9781043791916
 20
-105.5603568934795
 30
0.0
 11
-101.2460535716226
 21
-106.0603568934792
 31
0.0
  0
LINE
  5
92
330
47
100
AcDbEntity
  8
0
  6
Continuous
 62
     7
100
AcDbLine
 10
-102.97810437919
 20
-104.7556637493573
 30
0.0
 11
-102.9781043791916
 21
-105.5603568934795
 31
0.0
  0
LINE
  5
93
330
47
100
AcDbEntity
  8
0
  6
Continuous
 62
     7
100
AcDbLine
 10
-104.277142484867
 20
-106.4843949991601
 30
0.0
 11
-104.2771424848686
 21
-103.7997162474276
 31
0.0
  0
LINE
  5
94
330
47
100
AcDbEntity
  8
0
  6
Continuous
 62
     7
100
AcDbLine
 10
-100.5176911491071
 20
-107.5696551195109
 30
0.0
 11
-104.277142484867
 21
-106.4843949991601
 31
0.0
  0
LINE
  5
95
330
47
100
AcDbEntity
  8
0
  6
Continuous
 62
     7
100
AcDbLine
 10
-100.5176911491071
 20
-107.5696551195109
 30
0.0
 11
-97.94269114910708
 21
-105.3396397047661
 31
0.0
  0
LINE
  5
96
330
47
100
AcDbEntity
  8
0
  6
Continuous
 62
     7
100
AcDbLine
 10
-82.31257318138898
 20
-86.87023864772891
 30
0.0
 11
-82.31257318138847
 21
-87.79688582977846
 31
0.0
  0
LINE
  5
97
330
47
100
AcDbEntity
  8
0
  6
Continuous
 62
     7
100
AcDbLine
 10
-82.54839849893386
 20
-86.80216174244603
 30
0.0
 11
-82.31257318138898
 21
-86.87023864772891
 31
0.0
  0
LINE
  5
98
330
47
100
AcDbEntity
  8
0
  6
Continuous
 62
     7
100
AcDbLine
 10
-100.537206216906
 20
-97.8281808240082
 30
0.0
 11
-101.246053571623
 21
-101.6436273341805
 31
0.0
  0
LINE
  5
99
330
47
100
AcDbEntity
  8
0
  6
Continuous
 62
     7
100
AcDbLine
 10
-73.93719228858129
 20
-89.50588180975794
 30
0.0
 11
-81.6738794461005
 21
-86.5956201837194
 31
0.0
  0
LINE
  5
9A
330
47
100
AcDbEntity
  8
0
  6
Continuous
 62
     7
100
AcDbLine
 10
-79.7083984989369
 20
-84.18965177435928
 30
0.0
 11
-79.09887944610057
 21
-84.36560476897449
 31
0.0
  0
LINE
  5
9B
330
47
100
AcDbEntity
  8
0
  6
Continuous
 62
     7
100
AcDbLine
 10
-76.53374706312559
 20
-86.17848628373969
 30
0.0
 11
-79.76137944608257
 21
-84.93934659898696
 31
0.0
  0
LINE
  5
9C
330
47
100
AcDbEntity
  8
0
  6
Continuous
 62
     7
100
AcDbLine
 10
-79.76137944608257
 20
-84.93934659898696
 30
0.0
 11
-79.09887944610057
 21
-84.36560476897449
 31
0.0
  0
LINE
  5
9D
330
47
100
AcDbEntity
  8
0
  6
Continuous
 62
     7
100
AcDbLine
 10
-77.74346136654148
 20
-87.22612960181928
 30
0.0
 11
-76.53374706312559
 21
-86.17848628373969
 31
0.0
  0
LINE
  5
9E
330
47
100
AcDbEntity
  8
0
  6
Continuous
 62
     7
100
AcDbLine
 10
-72.48149387831887
 20
-87.25853714839448
 30
0.0
 11
-74.38149387831987
 21
-88.90398541558449
 31
0.0
  0
LINE
  5
9F
330
47
100
AcDbEntity
  8
0
  6
Continuous
 62
     7
100
AcDbLine
 10
-74.38149387831987
 20
-88.90398541558449
 30
0.0
 11
-73.58719228858118
 21
-89.20277291843334
 31
0.0
  0
LINE
  5
A0
330
47
100
AcDbEntity
  8
0
  6
Continuous
 62
     7
100
AcDbLine
 10
-73.93719228858129
 20
-89.50588180975794
 30
0.0
 11
-73.58719228858118
 21
-89.20277291843334
 31
0.0
  0
LINE
  5
A1
330
47
100
AcDbEntity
  8
0
  6
Continuous
 62
     7
100
AcDbLine
 10
-70.3251178270146
 20
-90.30970385088699
 30
0.0
 11
-72.94189859773488
 21
-90.50673461983996
 31
0.0
  0
LINE
  5
A2
330
47
100
AcDbEntity
  8
0
  6
Continuous
 62
     7
100
AcDbLine
 10
-73.3812773996637
 20
-95.50861964360465
 30
0.0
 11
-73.59284772279278
 21
-95.08109400306626
 31
0.0
  0
LINE
  5
A3
330
47
100
AcDbEntity
  8
0
  6
Continuous
 62
     2
100
AcDbLine
 10
-74.381779796015
 20
-96.17243980730441
 30
0.0
 11
-73.15692497114478
 21
-95.81885467587463
 31
0.0
  0
LINE
  5
A4
330
47
100
AcDbEntity
  8
0
  6
Continuous
 62
     7
100
AcDbLine
 10
-74.33199882050798
 20
-96.29446854568639
 30
0.0
 11
-74.07219119937247
 21
-96.81946854568639
 31
0.0
  0
LINE
  5
A5
330
47
100
AcDbEntity
  8
0
  6
Continuous
 62
     2
100
AcDbLine
 10
-73.65483888477038
 20
-97.25126517650233
 30
0.0
 11
-73.29008910310466
 21
-97.14597098418614
 31
0.0
  0
LINE
  5
A6
330
47
100
AcDbEntity
  8
0
  6
Continuous
 62
     2
100
AcDbLine
 10
-72.7800497089437
 20
-97.38345389158277
 30
0.0
 11
-72.88917849748029
 21
-97.47796219473881
 31
0.0
  0
LINE
  5
A7
330
47
100
AcDbEntity
  8
0
  6
Continuous
 62
     7
100
AcDbLine
 10
-70.76195935840849
 20
-112.0685741652647
 30
0.0
 11
-70.76195935840829
 21
-112.6086908436263
 31
0.0
  0
LINE
  5
A8
330
47
100
AcDbEntity
  8
0
  6
Continuous
 62
     7
100
AcDbLine
 10
-69.89593395462418
 20
-112.1658705205981
 30
0.0
 11
-70.76195935840849
 21
-112.0685741652647
 31
0.0
  0
LINE
  5
A9
330
47
100
AcDbEntity
  8
0
  6
Continuous
 62
     7
100
AcDbLine
 10
-68.95553369845987
 20
-114.669002657098
 30
0.0
 11
-68.65826564277788
 21
-115.6697135541815
 31
0.0
  0
LINE
  5
AA
330
47
100
AcDbEntity
  8
0
  6
Continuous
 62
     7
100
AcDbLine
 10
-69.8959339546247
 20
-111.2132425764351
 30
0.0
 11
-69.89593395462418
 21
-112.1658705205981
 31
0.0
  0
LINE
  5
AB
330
47
100
AcDbEntity
  8
0
  6
Continuous
 62
     7
100
AcDbLine
 10
-69.49785774326949
 20
-115.1386690569862
 30
0.0
 11
-70.05848758058548
 21
-114.9768291632412
 31
0.0
  0
LINE
  5
AC
330
47
100
AcDbEntity
  8
0
  6
Continuous
 62
     7
100
AcDbLine
 10
-70.05848758058548
 20
-114.9768291632412
 30
0.0
 11
-70.76195935840829
 21
-112.6086908436263
 31
0.0
  0
LINE
  5
AD
330
47
100
AcDbEntity
  8
0
  6
Continuous
 62
     7
100
AcDbLine
 10
-67.29785774327317
 20
-108.3534298269908
 30
0.0
 11
-71.19497206030499
 21
-99.57991232723666
 31
0.0
  0
LINE
  5
AE
330
47
100
AcDbEntity
  8
0
  6
Continuous
 62
     7
100
AcDbLine
 10
-71.19497206029789
 20
-96.98888692345247
 30
0.0
 11
-71.19497206030499
 21
-99.57991232723666
 31
0.0
  0
LINE
  5
AF
330
47
100
AcDbEntity
  8
0
  6
Continuous
 62
     7
100
AcDbLine
 10
-72.88917849748029
 20
-97.47796219473881
 30
0.0
 11
-71.19497206029789
 21
-96.98888692345247
 31
0.0
  0
LINE
  5
B0
330
47
100
AcDbEntity
  8
0
  6
Continuous
 62
     7
100
AcDbLine
 10
-72.7800497089437
 20
-97.38345389158277
 30
0.0
 11
-71.08584327177078
 21
-96.89437862029527
 31
0.0
  0
LINE
  5
B1
330
47
100
AcDbEntity
  8
0
  6
Continuous
 62
     7
100
AcDbLine
 10
-71.48001152241
 20
-94.47117072854155
 30
0.0
 11
-74.01501152240127
 21
-95.20296219473974
 31
0.0
  0
LINE
  5
B2
330
47
100
AcDbEntity
  8
0
  6
Continuous
 62
     7
100
AcDbLine
 10
-71.48001152241
 20
-94.47117072854155
 30
0.0
 11
-73.93719228858129
 21
-89.50588180975794
 31
0.0
  0
LINE
  5
B3
330
47
100
AcDbEntity
  8
0
  6
Continuous
 62
     2
100
AcDbLine
 10
-73.3812773996637
 20
-95.50861964360465
 30
0.0
 11
-71.67219119937158
 21
-94.74100757660341
 31
0.0
  0
LINE
  5
B4
330
47
100
AcDbEntity
  8
0
  6
Continuous
 62
     7
100
AcDbLine
 10
-73.58719228858118
 20
-89.20277291843334
 30
0.0
 11
-72.22511782701469
 21
-91.95515211807708
 31
0.0
  0
LINE
  5
B5
330
47
100
AcDbEntity
  8
0
  6
Continuous
 62
     7
100
AcDbLine
 10
-71.36219228858127
 20
-87.27586639501297
 30
0.0
 11
-79.09887944610057
 21
-84.36560476897449
 31
0.0
  0
LINE
  5
B6
330
47
100
AcDbEntity
  8
0
  6
Continuous
 62
     7
100
AcDbLine
 10
-71.76501152240067
 20
-94.55344314189867
 30
0.0
 11
-71.67219119937158
 21
-94.74100757660341
 31
0.0
  0
LINE
  5
B7
330
47
100
AcDbEntity
  8
0
  6
Continuous
 62
     7
100
AcDbLine
 10
-72.22511782701469
 20
-91.95515211807708
 30
0.0
 11
-70.3251178270146
 21
-90.30970385088699
 31
0.0
  0
LINE
  5
B8
330
47
100
AcDbEntity
  8
0
  6
Continuous
 62
     7
100
AcDbLine
 10
-71.68719228858117
 20
-87.55732465124291
 30
0.0
 11
-72.48149387831887
 21
-87.25853714839448
 31
0.0
  0
LINE
  5
B9
330
47
100
AcDbEntity
  8
0
  6
Continuous
 62
     7
100
AcDbLine
 10
-71.36219228858127
 20
-87.27586639501297
 30
0.0
 11
-71.68719228858117
 21
-87.55732465124291
 31
0.0
  0
LINE
  5
BA
330
47
100
AcDbEntity
  8
0
  6
Continuous
 62
     7
100
AcDbLine
 10
-70.3251178270146
 20
-90.30970385088699
 30
0.0
 11
-71.68719228858117
 21
-87.55732465124291
 31
0.0
  0
LINE
  5
BB
330
47
100
AcDbEntity
  8
0
  6
Continuous
 62
     7
100
AcDbLine
 10
-68.79497206030669
 20
-93.91042595437062
 30
0.0
 11
-68.79497206030689
 21
-93.3104259543677
 31
0.0
  0
LINE
  5
BC
330
47
100
AcDbEntity
  8
0
  6
Continuous
 62
     7
100
AcDbLine
 10
-68.61997206030489
 20
-97.34989691249172
 30
0.0
 11
-68.6199720603064
 21
-92.81714194940929
 31
0.0
  0
LINE
  5
BD
330
47
100
AcDbEntity
  8
0
  6
Continuous
 62
     7
100
AcDbLine
 10
-68.80719883823298
 20
-92.97928509536268
 30
0.0
 11
-68.6199720603064
 21
-92.81714194940929
 31
0.0
  0
LINE
  5
BE
330
47
100
AcDbEntity
  8
0
  6
Continuous
 62
     2
100
AcDbLine
 10
-68.79497206030689
 20
-93.3104259543677
 30
0.0
 11
-71.41622958974958
 21
-94.06711782449489
 31
0.0
  0
LINE
  5
BF
330
47
100
AcDbEntity
  8
0
  6
Continuous
 62
     2
100
AcDbLine
 10
-68.79497206030669
 20
-93.91042595437062
 30
0.0
 11
-71.67219119937158
 21
-94.74100757660341
 31
0.0
  0
LINE
  5
C0
330
47
100
AcDbEntity
  8
0
  6
Continuous
 62
     7
100
AcDbLine
 10
-71.19497206029789
 20
-96.98888692345247
 30
0.0
 11
-71.08584327177078
 21
-96.89437862029527
 31
0.0
  0
LINE
  5
C1
330
47
100
AcDbEntity
  8
0
  6
Continuous
 62
     7
100
AcDbLine
 10
-71.48001152241
 20
-94.47117072854155
 30
0.0
 11
-71.3708827338748
 21
-94.37666242538546
 31
0.0
  0
LINE
  5
C2
330
47
100
AcDbEntity
  8
0
  6
Continuous
 62
     7
100
AcDbLine
 10
-70.76195935840849
 20
-112.0685741652647
 30
0.0
 11
-69.89593395462458
 21
-111.3185741652652
 31
0.0
  0
LINE
  5
C3
330
47
100
AcDbEntity
  8
0
  6
Continuous
 62
     7
100
AcDbLine
 10
-69.49785774326949
 20
-115.1386690569862
 30
0.0
 11
-68.54785774326427
 21
-114.3159449233865
 31
0.0
  0
LINE
  5
C4
330
47
100
AcDbEntity
  8
0
  6
Continuous
 62
     7
100
AcDbLine
 10
-66.34785774326579
 20
-111.1405184428422
 30
0.0
 11
-67.2978577432713
 21
-111.9632425764422
 31
0.0
  0
LINE
  5
C5
330
47
100
AcDbEntity
  8
0
  6
Continuous
 62
     7
100
AcDbLine
 10
-66.34785774326309
 20
-116.3366708655411
 30
0.0
 11
-66.34785774326579
 21
-111.1405184428422
 31
0.0
  0
LINE
  5
C6
330
47
100
AcDbEntity
  8
0
  6
Continuous
 62
     7
100
AcDbLine
 10
-66.34785774326579
 20
-111.1405184428422
 30
0.0
 11
-68.54785774326427
 21
-114.3159449233865
 31
0.0
  0
LINE
  5
C7
330
47
100
AcDbEntity
  8
0
  6
Continuous
 62
     7
100
AcDbLine
 10
-67.2978577432713
 20
-111.9632425764422
 30
0.0
 11
-69.49785774326949
 21
-115.1386690569862
 31
0.0
  0
LINE
  5
C8
330
47
100
AcDbEntity
  8
0
  6
Continuous
 62
     7
100
AcDbLine
 10
-68.61997206030489
 20
-97.34989691249172
 30
0.0
 11
-71.19497206030499
 21
-99.57991232723666
 31
0.0
  0
LINE
  5
C9
330
47
100
AcDbEntity
  8
0
  6
Continuous
 62
     7
100
AcDbLine
 10
-68.6199720603064
 20
-92.81714194940929
 30
0.0
 11
-71.36219228858127
 21
-87.27586639501297
 31
0.0
  0
LINE
  5
CA
330
47
100
AcDbEntity
  8
0
  6
Continuous
 62
     7
100
AcDbLine
 10
-85.21518386032886
 20
-83.98562041503408
 30
0.0
 11
-80.90839849893956
 21
-85.2288822589029
 31
0.0
  0
LINE
  5
CB
330
47
100
AcDbEntity
  8
0
  6
Continuous
 62
     7
100
AcDbLine
 10
-79.70855543692969
 20
-86.50197834425927
 30
0.0
 11
-79.76137944608257
 21
-84.93934659898696
 31
0.0
  0
LINE
  5
CC
330
47
100
AcDbEntity
  8
0
  6
Continuous
 62
     7
100
AcDbLine
 10
-82.28339849893689
 20
-86.41966718910419
 30
0.0
 11
-79.7083984989369
 21
-84.18965177435928
 31
0.0
  0
LINE
  5
CD
330
47
100
AcDbEntity
  8
0
  6
Continuous
 62
     7
100
AcDbLine
 10
-81.01137944609928
 20
-86.02187835371114
 30
0.0
 11
-79.76137944608257
 21
-84.93934659898696
 31
0.0
  0
LINE
  5
CE
330
47
100
AcDbEntity
  8
0
  6
Continuous
 62
     7
100
AcDbLine
 10
-98.90778498140708
 20
-91.57991232725561
 30
0.0
 11
-98.90778498141009
 21
-88.98888692346091
 31
0.0
  0
LINE
  5
CF
330
47
100
AcDbEntity
  8
0
  6
Continuous
 62
     7
100
AcDbLine
 10
-97.21357854423368
 20
-90.45611273731092
 30
0.0
 11
-98.90778498141009
 21
-88.98888692346091
 31
0.0
  0
LINE
  5
D0
330
47
100
AcDbEntity
  8
0
  6
Continuous
 62
     7
100
AcDbLine
 10
-95.770758221206
 20
-90.10563179015
 30
0.0
 11
-96.03056584234167
 21
-90.48063179015
 31
0.0
  0
LINE
  5
D1
330
47
100
AcDbEntity
  8
0
  6
Continuous
 62
     7
100
AcDbLine
 10
-98.62274551931307
 20
-86.63573833871754
 30
0.0
 11
-96.0877455193135
 21
-88.83111273731171
 31
0.0
  0
LINE
  5
D2
330
47
100
AcDbEntity
  8
0
  6
Continuous
 62
     7
100
AcDbLine
 10
-97.602967999957
 20
-99.48590437818822
 30
0.0
 11
-98.60215225769286
 21
-102.9264711441041
 31
0.0
  0
LINE
  5
D3
330
47
100
AcDbEntity
  8
0
  6
Continuous
 62
     7
100
AcDbLine
 10
-82.31257318138847
 20
-87.79688582977846
 30
0.0
 11
-87.79018386032888
 21
-86.21563582977888
 31
0.0
  0
LINE
  5
D4
330
47
100
AcDbEntity
  8
0
  6
Continuous
 62
     7
100
AcDbLine
 10
-81.6738794461005
 20
-86.5956201837194
 30
0.0
 11
-81.01137944609928
 21
-86.02187835371114
 31
0.0
  0
LINE
  5
D5
330
47
100
AcDbEntity
  8
0
  6
Continuous
 62
     7
100
AcDbLine
 10
-87.79018386032888
 20
-86.21563582977888
 30
0.0
 11
-85.21518386032886
 21
-83.98562041503408
 31
0.0
  0
LINE
  5
D6
330
47
100
AcDbEntity
  8
0
  6
Continuous
 62
     7
100
AcDbLine
 10
-85.24435854278147
 20
-82.59155776359285
 30
0.0
 11
-84.9793585427841
 21
-83.12705013826823
 31
0.0
  0
LINE
  5
D7
330
47
100
AcDbEntity
  8
0
  6
Continuous
 62
     7
100
AcDbLine
 10
-102.3311040110204
 20
-97.31032713684343
 30
0.0
 11
-100.537206216906
 21
-97.8281808240082
 31
0.0
  0
LINE
  5
D8
330
47
100
AcDbEntity
  8
0
  6
Continuous
 62
     7
100
AcDbLine
 10
-102.3311040110204
 20
-97.31032713684343
 30
0.0
 11
-98.90778498140708
 21
-91.57991232725561
 31
0.0
  0
LINE
  5
D9
330
47
100
AcDbEntity
  8
0
  6
Continuous
 62
     7
100
AcDbLine
 10
-84.9793585427841
 20
-83.12705013826823
 30
0.0
 11
-87.55435854278409
 21
-85.35706555301303
 31
0.0
  0
LINE
  5
DA
330
47
100
AcDbEntity
  8
0
  6
Continuous
 62
     7
100
AcDbLine
 10
-101.2460535716226
 20
-103.2653043374062
 30
0.0
 11
-102.9085313178253
 21
-104.7050522988439
 31
0.0
  0
LINE
  5
DB
330
47
100
AcDbEntity
  8
0
  6
Continuous
 62
     7
100
AcDbLine
 10
-85.85387759561638
 20
-82.41560476897757
 30
0.0
 11
-85.24435854278147
 21
-82.59155776359285
 31
0.0
  0
LINE
  5
DC
330
47
100
AcDbEntity
  8
0
  6
Continuous
 62
     7
100
AcDbLine
 10
-85.21518386032898
 20
-83.33128085411761
 30
0.0
 11
-85.21518386032886
 21
-83.98562041503408
 31
0.0
  0
LINE
  5
DD
330
47
100
AcDbEntity
  8
0
  6
Continuous
 62
     7
100
AcDbLine
 10
-99.08099006216239
 20
-103.9729213281817
 30
0.0
 11
-99.08099006216199
 21
-104.4336908436405
 31
0.0
  0
LINE
  5
DE
330
47
100
AcDbEntity
  8
0
  6
Continuous
 62
     7
100
AcDbLine
 10
-85.24435854278147
 20
-82.59155776359285
 30
0.0
 11
-87.8193585427814
 21
-84.82157317833773
 31
0.0
  0
LINE
  5
DF
330
47
100
AcDbEntity
  8
0
  6
Continuous
 62
     7
100
AcDbLine
 10
-101.5119079250997
 20
-101.1143647812656
 30
0.0
 11
-104.0869079250998
 21
-103.3443801960105
 31
0.0
  0
LINE
  5
E0
330
47
100
AcDbEntity
  8
0
  6
Continuous
 62
     7
100
AcDbLine
 10
-93.12126316339646
 20
-81.30034897202563
 30
0.0
 11
-93.9155647531444
 21
-81.1405462382198
 31
0.0
  0
LINE
  5
E1
330
47
100
AcDbEntity
  8
0
  6
Continuous
 62
     7
100
AcDbLine
 10
-95.02126316339917
 20
-82.9457972392155
 30
0.0
 11
-93.12126316339646
 21
-81.30034897202563
 31
0.0
  0
LINE
  5
E2
330
47
100
AcDbEntity
  8
0
  6
Continuous
 62
     7
100
AcDbLine
 10
-95.14853887307439
 20
-82.92019108833315
 30
0.0
 11
-93.9155647531444
 21
-81.1405462382198
 31
0.0
  0
LINE
  5
E3
330
47
100
AcDbEntity
  8
0
  6
Continuous
 62
     7
100
AcDbLine
 10
-89.78429567517969
 20
-82.35338237970487
 30
0.0
 11
-90.99400997859559
 21
-83.40102569778438
 31
0.0
  0
LINE
  5
E4
330
47
100
AcDbEntity
  8
0
  6
Continuous
 62
     7
100
AcDbLine
 10
-93.59056475314318
 20
-80.85908798199006
 30
0.0
 11
-93.9155647531444
 21
-81.1405462382198
 31
0.0
  0
LINE
  5
E5
330
47
100
AcDbEntity
  8
0
  6
Continuous
 62
     7
100
AcDbLine
 10
-85.85387759561638
 20
-82.41560476897757
 30
0.0
 11
-86.516377595618
 21
-82.9893465989831
 31
0.0
  0
LINE
  5
E6
330
47
100
AcDbEntity
  8
0
  6
Continuous
 62
     7
100
AcDbLine
 10
-86.516377595618
 20
-82.9893465989831
 30
0.0
 11
-87.766377595618
 21
-84.07187835371366
 31
0.0
  0
LINE
  5
E7
330
47
100
AcDbEntity
  8
0
  6
Continuous
 62
     7
100
AcDbLine
 10
-86.516377595618
 20
-82.9893465989831
 30
0.0
 11
-89.78429567517969
 21
-82.35338237970487
 31
0.0
  0
LINE
  5
E8
330
47
100
AcDbEntity
  8
0
  6
Continuous
 62
     7
100
AcDbLine
 10
-89.78429567517969
 20
-82.35338237970487
 30
0.0
 11
-89.78499480761548
 21
-83.6523154799753
 31
0.0
  0
LINE
  5
E9
330
47
100
AcDbEntity
  8
0
  6
Continuous
 62
     7
100
AcDbLine
 10
-96.16556475314309
 20
-83.08910339673494
 30
0.0
 11
-95.81556475314318
 21
-82.78599450541043
 31
0.0
  0
LINE
  5
EA
330
47
100
AcDbEntity
  8
0
  6
Continuous
 62
     7
100
AcDbLine
 10
-95.81556475314318
 20
-82.78599450541043
 30
0.0
 11
-95.02126316339917
 21
-82.9457972392155
 31
0.0
  0
LINE
  5
EB
330
47
100
AcDbEntity
  8
0
  6
Continuous
 62
     7
100
AcDbLine
 10
-98.62274551931307
 20
-86.63573833871754
 30
0.0
 11
-96.16556475314309
 21
-83.08910339673494
 31
0.0
  0
LINE
  5
EC
330
47
100
AcDbEntity
  8
0
  6
Continuous
 62
     7
100
AcDbLine
 10
-87.766377595618
 20
-84.07187835371366
 30
0.0
 11
-88.42887759561637
 21
-84.64562018372243
 31
0.0
  0
LINE
  5
ED
330
47
100
AcDbEntity
  8
0
  6
Continuous
 62
     7
100
AcDbLine
 10
-90.99400997859559
 20
-83.40102569778438
 30
0.0
 11
-87.766377595618
 21
-84.07187835371366
 31
0.0
  0
LINE
  5
EE
330
47
100
AcDbEntity
  8
0
  6
Continuous
 62
     7
100
AcDbLine
 10
-87.8193585427814
 20
-84.82157317833773
 30
0.0
 11
-88.42887759561637
 21
-84.64562018372243
 31
0.0
  0
LINE
  5
EF
330
47
100
AcDbEntity
  8
0
  6
Continuous
 62
     7
100
AcDbLine
 10
-87.8193585427814
 20
-84.82157317833773
 30
0.0
 11
-87.55435854278409
 21
-85.35706555301303
 31
0.0
  0
LINE
  5
F0
330
47
100
AcDbEntity
  8
0
  6
Continuous
 62
     7
100
AcDbLine
 10
-87.55435854278409
 20
-85.35706555301303
 30
0.0
 11
-87.79018386032888
 21
-85.28898864772981
 31
0.0
  0
LINE
  5
F1
330
47
100
AcDbEntity
  8
0
  6
Continuous
 62
     7
100
AcDbLine
 10
-87.79018386032888
 20
-85.28898864772981
 30
0.0
 11
-87.79018386032888
 21
-86.21563582977888
 31
0.0
  0
LINE
  5
F2
330
47
100
AcDbEntity
  8
0
  6
Continuous
 62
     7
100
AcDbLine
 10
-99.08099006216239
 20
-103.9729213281817
 30
0.0
 11
-98.05502816783837
 21
-103.0844122643824
 31
0.0
  0
LINE
  5
F3
330
47
100
AcDbEntity
  8
0
  6
Continuous
 62
     7
100
AcDbLine
 10
-99.08099006216199
 20
-104.4336908436405
 30
0.0
 11
-97.65599006216127
 21
-103.199604643247
 31
0.0
  0
LINE
  5
F4
330
47
100
AcDbEntity
  8
0
  6
Continuous
 62
     7
100
AcDbLine
 10
-99.94701546594439
 20
-103.4908705206147
 30
0.0
 11
-99.9470154659449
 21
-102.538242576451
 31
0.0
  0
LINE
  5
F5
330
47
100
AcDbEntity
  8
0
  6
Continuous
 62
     7
100
AcDbLine
 10
-99.94701546594439
 20
-103.4908705206147
 30
0.0
 11
-99.08099006216239
 21
-103.9729213281817
 31
0.0
  0
LINE
  5
F6
330
47
100
AcDbEntity
  8
0
  6
Continuous
 62
     7
100
AcDbLine
 10
-101.246053571623
 20
-101.6436273341805
 30
0.0
 11
-101.2460535716226
 21
-106.0603568934792
 31
0.0
  0
LINE
  5
F7
330
47
100
AcDbEntity
  8
0
  6
Continuous
 62
     7
100
AcDbLine
 10
-99.94701546594439
 20
-103.4908705206147
 30
0.0
 11
-98.36924393567509
 21
-102.1244802940337
 31
0.0
  0
LINE
  5
F8
330
47
100
AcDbEntity
  8
0
  6
Continuous
 62
     7
100
AcDbLine
 10
-99.9470154659449
 20
-102.538242576451
 30
0.0
 11
-97.9996286934051
 21
-100.8517561604378
 31
0.0
  0
LINE
  5
F9
330
47
100
AcDbEntity
  8
0
  6
Continuous
 62
     7
100
AcDbLine
 10
-88.42887759561637
 20
-84.64562018372243
 30
0.0
 11
-96.16556475314309
 21
-83.08910339673494
 31
0.0
  0
LINE
  5
FA
330
47
100
AcDbEntity
  8
0
  6
Continuous
 62
     7
100
AcDbLine
 10
-93.59056475314318
 20
-80.85908798199006
 30
0.0
 11
-85.85387759561638
 21
-82.41560476897757
 31
0.0
  0
LINE
  5
FB
330
47
100
AcDbEntity
  8
0
  6
Continuous
 62
     7
100
AcDbLine
 10
-81.01137944609928
 20
-86.02187835371114
 30
0.0
 11
-77.74346136654148
 21
-87.22612960181928
 31
0.0
  0
LINE
  5
FC
330
47
100
AcDbEntity
  8
0
  6
Continuous
 62
     2
100
AcDbLine
 10
-97.10444975569777
 20
-90.36160443415469
 30
0.0
 11
-97.21357854423368
 21
-90.45611273731092
 31
0.0
  0
LINE
  5
FD
330
47
100
AcDbEntity
  8
0
  6
Continuous
 62
     7
100
AcDbLine
 10
-98.79865619287298
 20
-88.89437862030303
 30
0.0
 11
-98.90778498141009
 21
-88.98888692346091
 31
0.0
  0
LINE
  5
FE
330
47
100
AcDbEntity
  8
0
  6
Continuous
 62
     7
100
AcDbLine
 10
-97.10444975569777
 20
-90.36160443415469
 30
0.0
 11
-98.79865619287298
 21
-88.89437862030303
 31
0.0
  0
LINE
  5
FF
330
47
100
AcDbEntity
  8
0
  6
Continuous
 62
     7
100
AcDbLine
 10
-82.28339849893689
 20
-86.41966718910419
 30
0.0
 11
-81.6738794461005
 21
-86.5956201837194
 31
0.0
  0
LINE
  5
100
330
47
100
AcDbEntity
  8
0
  6
Continuous
 62
     2
100
AcDbLine
 10
-98.85774245556337
 20
-98.78746639126757
 30
0.0
 11
-98.48636564643976
 21
-98.46584464019014
 31
0.0
  0
LINE
  5
101
330
47
100
AcDbEntity
  8
0
  6
Continuous
 62
     2
100
AcDbLine
 10
-101.4227196214631
 20
-101.4482906711695
 30
0.0
 11
-101.1689302058578
 21
-101.2285025900396
 31
0.0
  0
LINE
  5
102
330
47
100
AcDbEntity
  8
0
  6
Continuous
 62
     7
100
AcDbLine
 10
-101.2206029641784
 20
-101.5066367244108
 30
0.0
 11
-101.4227196214631
 21
-101.4482906711695
 31
0.0
  0
LINE
  5
103
330
47
100
AcDbEntity
  8
0
  6
Continuous
 62
     7
100
AcDbLine
 10
-98.85774245556337
 20
-98.78746639126757
 30
0.0
 11
-99.9470154659449
 21
-102.538242576451
 31
0.0
  0
LINE
  5
104
330
47
100
AcDbEntity
  8
0
  6
Continuous
 62
     7
100
AcDbLine
 10
-82.28339849893689
 20
-86.41966718910419
 30
0.0
 11
-82.54839849893386
 21
-86.80216174244603
 31
0.0
  0
LINE
  5
105
330
47
100
AcDbEntity
  8
0
  6
Continuous
 62
     7
100
AcDbLine
 10
-69.8959339546247
 20
-111.2132425764351
 30
0.0
 11
-98.60215225769286
 21
-102.9264711441041
 31
0.0
  0
SPLINE
  5
106
330
47
100
AcDbEntity
  8
0
  6
Continuous
 62
     7
100
AcDbSpline
210
0.0
220
0.0
230
1.0
 70
     8
 71
     3
 72
     9
 73
     5
 74
     3
 42
0.000000001
 43
0.0000000001
 44
0.00000001
 40
0.0
 40
0.0
 40
0.0
 40
0.0
 40
0.0431231433493595
 40
0.0861115098960107
 40
0.0861115098960107
 40
0.0861115098960107
 40
0.0861115098960107
 10
-102.97810437919
 20
-104.7556637493573
 30
0.0
 10
-102.9659545269868
 20
-104.7479522813583
 30
0.0
 10
-102.9416928070575
 20
-104.7325534303428
 30
0.0
 10
-102.9195736036429
 20
-104.7142097778219
 30
0.0
 10
-102.9085313178253
 20
-104.7050522988439
 30
0.0
 11
-102.97810437919
 21
-104.7556637493573
 31
0.0
 11
-102.9421921352329
 21
-104.7317908303324
 31
0.0
 11
-102.9085313178253
 21
-104.7050522988439
 31
0.0
  0
SPLINE
  5
107
330
47
100
AcDbEntity
  8
0
  6
Continuous
 62
     7
100
AcDbSpline
210
0.0
220
0.0
230
1.0
 70
     8
 71
     3
 72
     9
 73
     5
 74
     3
 42
0.000000001
 43
0.0000000001
 44
0.00000001
 40
0.0
 40
0.0
 40
0.0
 40
0.0
 40
0.1321740229618744
 40
0.2596330831004726
 40
0.2596330831004726
 40
0.2596330831004726
 40
0.2596330831004726
 10
-98.85774245556337
 20
-98.78746639126757
 30
0.0
 10
-98.84260656029097
 20
-98.74547212691176
 30
0.0
 10
-98.81287468594553
 20
-98.66298164310695
 30
0.0
 10
-98.75148359824028
 20
-98.60044107971622
 30
0.0
 10
-98.72134548079117
 20
-98.56973867521381
 30
0.0
 11
-98.85774245556337
 21
-98.78746639126757
 31
0.0
 11
-98.80412987978494
 21
-98.6666538735166
 31
0.0
 11
-98.72134548079117
 21
-98.56973867521381
 31
0.0
  0
SPLINE
  5
108
330
47
100
AcDbEntity
  8
0
  6
Continuous
 62
     7
100
AcDbSpline
210
0.0
220
0.0
230
1.0
 70
     8
 71
     3
 72
    15
 73
    11
 74
     9
 42
0.000000001
 43
0.0000000001
 44
0.00000001
 40
0.0
 40
0.0
 40
0.0
 40
0.0
 40
0.1902658755118743
 40
0.3948719958914219
 40
0.620091615772522
 40
0.8628338073139643
 40
1.113620440266991
 40
1.360411152418889
 40
1.59241207943481
 40
1.803915295261943
 40
1.803915295261943
 40
1.803915295261943
 40
1.803915295261943
 10
-98.72134548079117
 20
-98.56973867521381
 30
0.0
 10
-98.66734865766428
 20
-98.53459304767259
 30
0.0
 10
-98.55528529130973
 20
-98.46165289644497
 30
0.0
 10
-98.3402075758077
 20
-98.4532525562579
 30
0.0
 10
-98.12249639417303
 20
-98.51492339362639
 30
0.0
 10
-97.91719863258622
 20
-98.64450539978637
 30
0.0
 10
-97.74580709297115
 20
-98.82589210615659
 30
0.0
 10
-97.62784039242514
 20
-99.04034398754496
 30
0.0
 10
-97.56711985993057
 20
-99.26840588168241
 30
0.0
 10
-97.59139255739777
 20
-99.4156736692811
 30
0.0
 10
-97.602967999957
 20
-99.48590437818822
 30
0.0
 11
-98.72134548079117
 21
-98.56973867521381
 31
0.0
 11
-98.55357455629174
 21
-98.47999447107416
 31
0.0
 11
-98.34961175910954
 21
-98.46378198933127
 31
0.0
 11
-98.13229489860933
 21
-98.52291963262849
 31
0.0
 11
-97.92595815790574
 21
-98.65078253458492
 31
0.0
 11
-97.75370707857982
 21
-98.83305568438092
 31
0.0
 11
-97.63482777379463
 21
-99.04932719531321
 31
0.0
 11
-97.58263421978464
 21
-99.27538086894626
 31
0.0
 11
-97.602967999957
 21
-99.48590437818822
 31
0.0
  0
SPLINE
  5
109
330
47
100
AcDbEntity
  8
0
  6
Continuous
 62
     7
100
AcDbSpline
210
0.0
220
0.0
230
1.0
 70
     8
 71
     3
 72
    19
 73
    15
 74
    13
 42
0.000000001
 43
0.0000000001
 44
0.00000001
 40
0.0
 40
0.0
 40
0.0
 40
0.0
 40
0.100125674071612
 40
0.2024122917636331
 40
0.2723460372687745
 40
0.3432714386439271
 40
0.4148206747735594
 40
0.4872563408070307
 40
0.6330435734539972
 40
0.7818187971547966
 40
0.8521031796947074
 40
0.9317592311180892
 40
1.012271370097944
 40
1.083461914265894
 40
1.083461914265894
 40
1.083461914265894
 40
1.083461914265894
 10
-74.18916491269397
 20
-95.28515355448761
 30
0.0
 10
-74.2113457955667
 20
-95.3101494667482
 30
0.0
 10
-74.25618626477734
 20
-95.36068077036371
 30
0.0
 10
-74.30510488554248
 20
-95.43759413418996
 30
0.0
 10
-74.34229795531793
 20
-95.50964949483519
 30
0.0
 10
-74.36959743110756
 20
-95.57507099582077
 30
0.0
 10
-74.3919553092986
 20
-95.64320622348754
 30
0.0
 10
-74.41475668842573
 20
-95.73715518928427
 30
0.0
 10
-74.42935035676894
 20
-95.85917060028208
 30
0.0
 10
-74.42404480370291
 20
-95.98125975727629
 30
0.0
 10
-74.40769680249142
 20
-96.07957100370825
 30
0.0
 10
-74.38869674623757
 20
-96.15409024306703
 30
0.0
 10
-74.36345924839803
 20
-96.2271196209768
 30
0.0
 10
-74.34204706647164
 20
-96.27295777026318
 30
0.0
 10
-74.33199882050798
 20
-96.29446854568639
 30
0.0
 11
-74.18916491269397
 21
-95.28515355448761
 31
0.0
 11
-74.25363177459926
 21
-95.36176409246573
 31
0.0
 11
-74.30929688825927
 21
-95.44757753881709
 31
0.0
 11
-74.3412976102309
 21
-95.50976019449722
 31
0.0
 11
-74.36865258439698
 21
-95.57519808911792
 31
0.0
 11
-74.39096193016564
 21
-95.64318033956805
 31
0.0
 11
-74.40804902017558
 21
-95.71357179612676
 31
0.0
 11
-74.42531308365064
 21
-95.85833321943844
 31
0.0
 11
-74.41884298810979
 21
-96.00696768868946
 31
0.0
 11
-74.40729647696543
 21
-96.07629713841074
 31
0.0
 11
-74.38771210392048
 21
-96.15350814147283
 31
0.0
 11
-74.36107242965603
 21
-96.22948532519747
 31
0.0
 11
-74.33199882050798
 21
-96.29446854568639
 31
0.0
  0
SPLINE
  5
10A
330
47
100
AcDbEntity
  8
0
  6
Continuous
 62
     7
100
AcDbSpline
210
0.0
220
0.0
230
1.0
 70
     8
 71
     3
 72
     9
 73
     5
 74
     3
 42
0.000000001
 43
0.0000000001
 44
0.00000001
 40
0.0
 40
0.0
 40
0.0
 40
0.0
 40
0.1252440069280857
 40
0.2530926776748855
 40
0.2530926776748855
 40
0.2530926776748855
 40
0.2530926776748855
 10
-74.23665249121618
 20
-95.32203324872094
 30
0.0
 10
-74.20332422009402
 20
-95.2963928803038
 30
0.0
 10
-74.13597454897675
 20
-95.2445789249366
 30
0.0
 10
-74.0556082265944
 20
-95.21692928276968
 30
0.0
 10
-74.01501152240127
 20
-95.20296219473974
 30
0.0
 11
-74.23665249121618
 21
-95.32203324872094
 31
0.0
 11
-74.13348014430309
 21
-95.25102952786423
 31
0.0
 11
-74.01501152240127
 21
-95.20296219473974
 31
0.0
  0
SPLINE
  5
10B
330
47
100
AcDbEntity
  8
0
  6
Continuous
 62
     7
100
AcDbSpline
210
0.0
220
0.0
230
1.0
 70
     8
 71
     3
 72
    23
 73
    19
 74
    17
 42
0.000000001
 43
0.0000000001
 44
0.00000001
 40
0.0
 40
0.0
 40
0.0
 40
0.0
 40
0.1108611359549491
 40
0.2031628343275352
 40
0.2957407173510817
 40
0.4050812350521088
 40
0.495497057670909
 40
0.6028983131406601
 40
0.700510436780933
 40
0.7972913864909799
 40
0.9009983631669921
 40
0.9870964195016407
 40
1.088530121111882
 40
1.174643333240939
 40
1.260531529214548
 40
1.36201800447349
 40
1.454718233372829
 40
1.550571731221592
 40
1.550571731221592
 40
1.550571731221592
 40
1.550571731221592
 10
-73.15692497114478
 20
-95.81885467587463
 30
0.0
 10
-73.13192865544043
 20
-95.84611751170905
 30
0.0
 10
-73.08612070694858
 20
-95.89607907805348
 30
0.0
 10
-73.02881238544302
 20
-95.97654406108633
 30
0.0
 10
-72.97891280576232
 20
-96.06109861430366
 30
0.0
 10
-72.93854876841306
 20
-96.15006923393304
 30
0.0
 10
-72.90668837372101
 20
-96.24753970538504
 30
0.0
 10
-72.88694148070738
 20
-96.34430402761029
 30
0.0
 10
-72.87923573863344
 20
-96.44485001608716
 30
0.0
 10
-72.88386403643496
 20
-96.54436087525559
 30
0.0
 10
-72.90074790273849
 20
-96.63870240354903
 30
0.0
 10
-72.92973725366863
 20
-96.731556348347
 30
0.0
 10
-72.9675915557247
 20
-96.81486207724981
 30
0.0
 10
-73.01519167078393
 20
-96.89279348856932
 30
0.0
 10
-73.07090438329816
 20
-96.96517718081753
 30
0.0
 10
-73.13606873154046
 20
-97.03229994975798
 30
0.0
 10
-73.21037135863665
 20
-97.09452035209691
 30
0.0
 10
-73.26322190445998
 20
-97.12863063022975
 30
0.0
 10
-73.29008910310466
 20
-97.14597098418614
 30
0.0
 11
-73.15692497114478
 21
-95.81885467587463
 31
0.0
 11
-73.08385340056208
 21
-95.90222575854179
 31
0.0
 11
-73.02998012997017
 21
-95.97717423704867
 31
0.0
 11
-72.98309382652387
 21
-96.05700116937182
 31
0.0
 11
-72.9379914736362
 21
-96.15660602246018
 31
0.0
 11
-72.90997452664311
 21
-96.24257154914531
 31
0.0
 11
-72.88861135250258
 21
-96.3478266897875
 31
0.0
 11
-72.8812270064517
 21
-96.44515910089203
 31
0.0
 11
-72.88578351837867
 21
-96.54183272998779
 31
0.0
 11
-72.90408724232186
 21
-96.64391167425383
 31
0.0
 11
-72.92974429720726
 21
-96.72609799277893
 31
0.0
 11
-72.97167203204351
 21
-96.81846065318997
 31
0.0
 11
-73.01650826315466
 21
-96.89198070356693
 31
0.0
 11
-73.068866784226
 21
-96.9600642376587
 31
0.0
 11
-73.13936010072118
 21
-97.03307243734608
 31
0.0
 11
-73.21066253627616
 21
-97.09231174361459
 31
0.0
 11
-73.29008910310466
 21
-97.14597098418614
 31
0.0
  0
SPLINE
  5
10C
330
47
100
AcDbEntity
  8
0
  6
Continuous
 62
     7
100
AcDbSpline
210
0.0
220
0.0
230
1.0
 70
     8
 71
     3
 72
    11
 73
     7
 74
     5
 42
0.000000001
 43
0.0000000001
 44
0.00000001
 40
0.0
 40
0.0
 40
0.0
 40
0.0
 40
0.2929003443548704
 40
0.5643021229966839
 40
0.8127225384525458
 40
1.045919550126957
 40
1.045919550126957
 40
1.045919550126957
 40
1.045919550126957
 10
-74.33199882050798
 20
-96.29446854568639
 30
0.0
 10
-74.36962022253945
 20
-96.20364236365553
 30
0.0
 10
-74.44210164308492
 20
-96.02865653790215
 30
0.0
 10
-74.45751857946233
 20
-95.75436705994956
 30
0.0
 10
-74.39825234333577
 20
-95.50169983370546
 30
0.0
 10
-74.28937191500256
 20
-95.38064665443208
 30
0.0
 10
-74.23665249121618
 20
-95.32203324872094
 30
0.0
 11
-74.33199882050798
 21
-96.29446854568639
 31
0.0
 11
-74.42821960585542
 21
-96.01782405903322
 31
0.0
 11
-74.44411406209339
 21
-95.7468881011286
 31
0.0
 11
-74.37817104631573
 21
-95.50737980574993
 31
0.0
 11
-74.23665249121618
 21
-95.32203324872094
 31
0.0
  0
SPLINE
  5
10D
330
47
100
AcDbEntity
  8
0
  6
Continuous
 62
     7
100
AcDbSpline
210
0.0
220
0.0
230
1.0
 70
     8
 71
     3
 72
    11
 73
     7
 74
     5
 42
0.000000001
 43
0.0000000001
 44
0.00000001
 40
0.0
 40
0.0
 40
0.0
 40
0.0
 40
0.0986616310866181
 40
0.1931475104937151
 40
0.2900614554230806
 40
0.3843213482285771
 40
0.3843213482285771
 40
0.3843213482285771
 40
0.3843213482285771
 10
-73.15692497114478
 20
-95.81885467587463
 30
0.0
 10
-73.17942333944194
 20
-95.79484639609089
 30
0.0
 10
-73.22346784482554
 20
-95.74784595229445
 30
0.0
 10
-73.28317319803685
 20
-95.67167766920267
 30
0.0
 10
-73.33683049433078
 20
-95.59281872437256
 30
0.0
 10
-73.3665995293142
 20
-95.53642503649212
 30
0.0
 10
-73.3812773996637
 20
-95.50861964360465
 30
0.0
 11
-73.15692497114478
 21
-95.81885467587463
 31
0.0
 11
-73.22330131849735
 21
-95.7458594842516
 31
0.0
 11
-73.28183381213978
 21
-95.67168719338648
 31
0.0
 11
-73.3357510182239
 21
-95.59115615725067
 31
0.0
 11
-73.3812773996637
 21
-95.50861964360465
 31
0.0
  0
SPLINE
  5
10E
330
47
100
AcDbEntity
  8
0
  6
Continuous
 62
     7
100
AcDbSpline
210
0.0
220
0.0
230
1.0
 70
     8
 71
     3
 72
    11
 73
     7
 74
     5
 42
0.000000001
 43
0.0000000001
 44
0.00000001
 40
0.0
 40
0.0
 40
0.0
 40
0.0
 40
0.1108444949049234
 40
0.2096382501387318
 40
0.2545809639631063
 40
0.2968030650389792
 40
0.2968030650389792
 40
0.2968030650389792
 40
0.2968030650389792
 10
-73.29008910310466
 20
-97.14597098418614
 30
0.0
 10
-73.32154506809056
 20
-97.16535792659543
 30
0.0
 10
-73.38103717492524
 20
-97.20202412406302
 30
0.0
 10
-73.45169116496271
 20
-97.24906151172769
 30
0.0
 10
-73.50242527348951
 20
-97.28468458577399
 30
0.0
 10
-73.52574220626443
 20
-97.30202190751072
 30
0.0
 10
-73.53703678103949
 20
-97.31042000550445
 30
0.0
 11
-73.29008910310466
 21
-97.14597098418614
 31
0.0
 11
-73.38409045510195
 21
-97.20470979416174
 31
0.0
 11
-73.46631694254489
 21
-97.2594730201883
 31
0.0
 11
-73.50304423140511
 21
-97.28537579633395
 31
0.0
 11
-73.53703678103949
 21
-97.31042000550445
 31
0.0
  0
SPLINE
  5
10F
330
47
100
AcDbEntity
  8
0
  6
Continuous
 62
     7
100
AcDbSpline
210
0.0
220
0.0
230
1.0
 70
     8
 71
     3
 72
    13
 73
     9
 74
     7
 42
0.000000001
 43
0.0000000001
 44
0.00000001
 40
0.0
 40
0.0
 40
0.0
 40
0.0
 40
0.2587305584000705
 40
0.519582763673924
 40
0.7748860784899843
 40
1.018025412444057
 40
1.244915611520738
 40
1.455423913305735
 40
1.455423913305735
 40
1.455423913305735
 40
1.455423913305735
 10
-74.07219119937247
 20
-96.81946854568639
 30
0.0
 10
-74.02923363913763
 20
-96.89458155912055
 30
0.0
 10
-73.94296624505239
 20
-97.04542352128752
 30
0.0
 10
-73.76165339535146
 20
-97.2327945229416
 30
0.0
 10
-73.55431952535228
 20
-97.38083447389025
 30
0.0
 10
-73.33039470968876
 20
-97.47547941037304
 30
0.0
 10
-73.10305413245275
 20
-97.51768041488532
 30
0.0
 10
-72.95866780699274
 20
-97.49086685647332
 30
0.0
 10
-72.88917849748029
 20
-97.47796219473881
 30
0.0
 11
-74.07219119937247
 21
-96.81946854568639
 31
0.0
 11
-73.93456347180592
 21
-97.03855781900678
 31
0.0
 11
-73.75520390126428
 21
-97.22796219473972
 31
0.0
 11
-73.54633500765601
 21
-97.37477353143223
 31
0.0
 11
-73.32219119937213
 21
-97.46898759852365
 31
0.0
 11
-73.09804739108837
 21
-97.50418301948169
 31
0.0
 11
-72.88917849748029
 21
-97.47796219473881
 31
0.0
  0
SPLINE
  5
110
330
47
100
AcDbEntity
  8
0
  6
Continuous
 62
     7
100
AcDbSpline
210
0.0
220
0.0
230
1.0
 70
     8
 71
     3
 72
    15
 73
    11
 74
     9
 42
0.000000001
 43
0.0000000001
 44
0.00000001
 40
0.0
 40
0.0
 40
0.0
 40
0.0
 40
0.1653736532290728
 40
0.3422120158230749
 40
0.530297017770296
 40
0.7268382785272431
 40
0.9249668084432994
 40
1.123487311494729
 40
1.321208733852608
 40
1.514132397044517
 40
1.514132397044517
 40
1.514132397044517
 40
1.514132397044517
 10
-72.7800497089437
 20
-97.38345389158277
 30
0.0
 10
-72.83404029383718
 20
-97.39531741833369
 30
0.0
 10
-72.94576442262836
 20
-97.41986690914317
 30
0.0
 10
-73.12383035456413
 20
-97.41769651841845
 30
0.0
 10
-73.3093965858667
 20
-97.39032817271128
 30
0.0
 10
-73.49583511817852
 20
-97.33297973122956
 30
0.0
 10
-73.67459442459649
 20
-97.24633578824104
 30
0.0
 10
-73.83607897545909
 20
-97.13028197212564
 30
0.0
 10
-73.97510866905651
 20
-96.98880984465058
 30
0.0
 10
-74.04009641186177
 20
-96.87545157305908
 30
0.0
 10
-74.07219119937247
 20
-96.81946854568639
 30
0.0
 11
-72.7800497089437
 21
-97.38345389158277
 31
0.0
 11
-72.94276540396287
 21
-97.41298435063936
 31
0.0
 11
-73.11960131324108
 21
-97.41391616136553
 31
0.0
 11
-73.30562888261815
 21
-97.38617247656838
 31
0.0
 11
-73.4935093917299
 21
-97.32847167843491
 31
0.0
 11
-73.671540736772
 21
-97.24152482598392
 31
0.0
 11
-73.83274407507326
 21
-97.12566338070226
 31
0.0
 11
-73.96927390462402
 21
-96.98264811145202
 31
0.0
 11
-74.07219119937247
 21
-96.81946854568639
 31
0.0
  0
SPLINE
  5
111
330
47
100
AcDbEntity
  8
0
  6
Continuous
 62
     7
100
AcDbSpline
210
0.0
220
0.0
230
1.0
 70
     8
 71
     3
 72
    11
 73
     7
 74
     5
 42
0.000000001
 43
0.0000000001
 44
0.00000001
 40
0.0
 40
0.0
 40
0.0
 40
0.0
 40
0.2385735334834851
 40
0.4768166229716698
 40
0.7613775529777055
 40
1.115148400614169
 40
1.115148400614169
 40
1.115148400614169
 40
1.115148400614169
 10
-70.32779217804017
 20
-97.54373253055681
 30
0.0
 10
-70.40842245675674
 20
-97.55662469307092
 30
0.0
 10
-70.56957133488925
 20
-97.5823911481598
 30
0.0
 10
-70.80403151677353
 20
-97.44880328812536
 30
0.0
 10
-70.97981746976994
 20
-97.20942891947755
 30
0.0
 10
-71.04803585885153
 20
-97.00672144696448
 30
0.0
 10
-71.08584327177078
 20
-96.89437862029527
 30
0.0
 11
-70.32779217804017
 21
-97.54373253055681
 31
0.0
 11
-70.56609881141881
 21
-97.55501444774494
 31
0.0
 11
-70.77810759497943
 21
-97.44633120219987
 31
0.0
 11
-70.95405621582452
 21
-97.22268637692066
 31
0.0
 11
-71.08584327177078
 21
-96.89437862029527
 31
0.0
  0
SPLINE
  5
112
330
47
100
AcDbEntity
  8
0
  6
Continuous
 62
     7
100
AcDbSpline
210
0.0
220
0.0
230
1.0
 70
     8
 71
     3
 72
    11
 73
     7
 74
     5
 42
0.000000001
 43
0.0000000001
 44
0.00000001
 40
0.0
 40
0.0
 40
0.0
 40
0.0
 40
0.5891426187578305
 40
1.181233924900035
 40
1.754483919075285
 40
2.289750236107602
 40
2.289750236107602
 40
2.289750236107602
 40
2.289750236107602
 10
-71.67219119937158
 20
-94.74100757660341
 30
0.0
 10
-71.5932119708371
 20
-94.92131728360901
 30
0.0
 10
-71.43485823288648
 20
-95.28283916182671
 30
0.0
 10
-71.31061906130952
 20
-95.85715592855773
 30
0.0
 10
-71.26345454294888
 20
-96.42599690642407
 30
0.0
 10
-71.31894618886018
 20
-96.79245437694453
 30
0.0
 10
-71.34574129932687
 20
-96.96940471838468
 30
0.0
 11
-71.67219119937158
 21
-94.74100757660341
 31
0.0
 11
-71.45383732891607
 21
-95.28819183520089
 31
0.0
 11
-71.32224423640344
 21
-95.8654745863086
 31
0.0
 11
-71.28546263461344
 21
-96.43754335125558
 31
0.0
 11
-71.34574129932687
 21
-96.96940471838468
 31
0.0
  0
SPLINE
  5
113
330
47
100
AcDbEntity
  8
0
  6
Continuous
 62
     7
100
AcDbSpline
210
0.0
220
0.0
230
1.0
 70
     8
 71
     3
 72
    15
 73
    11
 74
     9
 42
0.000000001
 43
0.0000000001
 44
0.00000001
 40
0.0
 40
0.0
 40
0.0
 40
0.0
 40
0.5792045988400161
 40
1.189442589402488
 40
1.80376973571484
 40
2.394909288917558
 40
2.937513203273419
 40
3.410696723024224
 40
3.801518224037716
 40
4.111224701445622
 40
4.111224701445622
 40
4.111224701445622
 40
4.111224701445622
 10
-68.79497206030669
 20
-93.91042595437062
 30
0.0
 10
-68.80160942597745
 20
-94.10354965984459
 30
0.0
 10
-68.81523978437384
 20
-94.50014450843838
 30
0.0
 10
-68.91325624328323
 20
-95.09484919722046
 30
0.0
 10
-69.06121248556236
 20
-95.6824471790913
 30
0.0
 10
-69.25822623456396
 20
-96.23158599973968
 30
0.0
 10
-69.49121726714587
 20
-96.71631564770678
 30
0.0
 10
-69.75154217642958
 20
-97.10536686571609
 30
0.0
 10
-70.01895466870656
 20
-97.40230472801659
 30
0.0
 10
-70.23311219604409
 20
-97.50037516763744
 30
0.0
 10
-70.32779217804017
 20
-97.54373253055681
 30
0.0
 11
-68.79497206030669
 21
-93.91042595437062
 31
0.0
 11
-68.82697840076428
 21
-94.48874554586386
 31
0.0
 11
-68.92128949993104
 21
-95.09165169375089
 31
0.0
 11
-69.07287501504993
 21
-95.686983260855
 31
0.0
 11
-69.27364832621703
 21
-96.24298330474787
 31
0.0
 11
-69.51289985907367
 21
-96.72999224865507
 31
0.0
 11
-69.77786676455489
 21
-97.12203201859367
 31
0.0
 11
-70.05441491338786
 21
-97.39818880118901
 31
0.0
 11
-70.32779217804017
 21
-97.54373253055681
 31
0.0
  0
SPLINE
  5
114
330
47
100
AcDbEntity
  8
0
  6
Continuous
 62
     7
100
AcDbSpline
210
0.0
220
0.0
230
1.0
 70
     8
 71
     3
 72
     9
 73
     5
 74
     3
 42
0.000000001
 43
0.0000000001
 44
0.00000001
 40
0.0
 40
0.0
 40
0.0
 40
0.0
 40
0.1627480604614122
 40
0.3314269580077237
 40
0.3314269580077237
 40
0.3314269580077237
 40
0.3314269580077237
 10
-68.80719883823298
 20
-92.97928509536268
 30
0.0
 10
-68.80363494392176
 20
-93.03342938909917
 30
0.0
 10
-68.79637730044809
 20
-93.14369109463995
 30
0.0
 10
-68.79544602193506
 20
-93.2541885556177
 30
0.0
 10
-68.79497206030689
 20
-93.3104259543677
 30
0.0
 11
-68.80719883823298
 21
-92.97928509536268
 31
0.0
 11
-68.79803265794393
 21
-93.14177482545365
 31
0.0
 11
-68.79497206030689
 21
-93.3104259543677
 31
0.0
  0
SPLINE
  5
115
330
47
100
AcDbEntity
  8
0
  6
Continuous
 62
     7
100
AcDbSpline
210
0.0
220
0.0
230
1.0
 70
     8
 71
     3
 72
    13
 73
     9
 74
     7
 42
0.000000001
 43
0.0000000001
 44
0.00000001
 40
0.0
 40
0.0
 40
0.0
 40
0.0
 40
0.2883121901428335
 40
0.5919332058539442
 40
0.9220863014602445
 40
1.284221683572291
 40
1.678445115394345
 40
2.100709274539225
 40
2.100709274539225
 40
2.100709274539225
 40
2.100709274539225
 10
-70.51263905599038
 20
-92.00109482920831
 30
0.0
 10
-70.41753982602006
 20
-91.98283511546562
 30
0.0
 10
-70.22229177725804
 20
-91.94534614620592
 30
0.0
 10
-69.91403918397441
 20
-92.0034140740556
 30
0.0
 10
-69.6088579927807
 20
-92.13877947777551
 30
0.0
 10
-69.3148061275137
 20
-92.35412854170033
 30
0.0
 10
-69.03830609099774
 20
-92.63622998482796
 30
0.0
 10
-68.88597838812126
 20
-92.86234489243269
 30
0.0
 10
-68.80719883823298
 20
-92.97928509536268
 30
0.0
 11
-70.51263905599038
 21
-92.00109482920831
 31
0.0
 11
-70.22671632273972
 21
-91.96405280089222
 31
0.0
 11
-69.92696184843064
 21
-92.0123537242505
 31
0.0
 11
-69.62429459632239
 21
-92.14423853440582
 31
0.0
 11
-69.32973965703528
 21
-92.35490277890017
 31
0.0
 11
-69.05402668818294
 21
-92.63667302750557
 31
0.0
 11
-68.80719883823298
 21
-92.97928509536268
 31
0.0
  0
SPLINE
  5
116
330
47
100
AcDbEntity
  8
0
  6
Continuous
 62
     7
100
AcDbSpline
210
0.0
220
0.0
230
1.0
 70
     8
 71
     3
 72
    13
 73
     9
 74
     7
 42
0.000000001
 43
0.0000000001
 44
0.00000001
 40
0.0
 40
0.0
 40
0.0
 40
0.0
 40
0.555303044226648
 40
1.080884042169909
 40
1.563142476781791
 40
1.995582048944542
 40
2.382332272048004
 40
2.740860832194613
 40
2.740860832194613
 40
2.740860832194613
 40
2.740860832194613
 10
-71.3708827338748
 20
-94.37666242538546
 30
0.0
 10
-71.39778782386414
 20
-94.19313455245985
 30
0.0
 10
-71.450157923577
 20
-93.835901953273
 30
0.0
 10
-71.42235268731827
 20
-93.31233620736346
 30
0.0
 10
-71.31412313342237
 20
-92.84090649412119
 30
0.0
 10
-71.12155326579476
 20
-92.44933874993406
 30
0.0
 10
-70.8559246395344
 20
-92.14475067737737
 30
0.0
 10
-70.62414192748356
 20
-92.0477557979378
 30
0.0
 10
-70.51263905599038
 20
-92.00109482920831
 30
0.0
 11
-71.3708827338748
 21
-94.37666242538546
 31
0.0
 11
-71.43270085611812
 21
-93.82481101035732
 31
0.0
 11
-71.40586133048804
 21
-93.2999157591394
 31
0.0
 11
-71.29186388311723
 21
-92.83132448641939
 31
0.0
 11
-71.09708307603027
 21
-92.44523586507711
 31
0.0
 11
-70.83240851948543
 21
-92.16323742713766
 31
0.0
 11
-70.51263905599038
 21
-92.00109482920831
 31
0.0
  0
SPLINE
  5
117
330
47
100
AcDbEntity
  8
0
  6
Continuous
 62
     7
100
AcDbSpline
210
0.0
220
0.0
230
1.0
 70
     8
 71
     3
 72
     9
 73
     5
 74
     3
 42
0.000000001
 43
0.0000000001
 44
0.00000001
 40
0.0
 40
0.0
 40
0.0
 40
0.0
 40
0.0718278238541473
 40
0.1431606241930431
 40
0.1431606241930431
 40
0.1431606241930431
 40
0.1431606241930431
 10
-96.03056584234167
 20
-90.48063179015
 30
0.0
 10
-96.04483283079546
 20
-90.49993320142359
 30
0.0
 10
-96.07326849761841
 20
-90.53840298953185
 30
0.0
 10
-96.10840477380084
 20
-90.5708662072797
 30
0.0
 10
-96.12591217163288
 20
-90.58704168332929
 30
0.0
 11
-96.03056584234167
 21
-90.48063179015
 31
0.0
 11
-96.0750535726748
 21
-90.53702397240718
 31
0.0
 11
-96.12591217163288
 21
-90.58704168332929
 31
0.0
  0
SPLINE
  5
118
330
47
100
AcDbEntity
  8
0
  6
Continuous
 62
     7
100
AcDbSpline
210
0.0
220
0.0
230
1.0
 70
     8
 71
     3
 72
    13
 73
     9
 74
     7
 42
0.000000001
 43
0.0000000001
 44
0.00000001
 40
0.0
 40
0.0
 40
0.0
 40
0.0
 40
0.1730836698621218
 40
0.3527902276899216
 40
0.5437909017296885
 40
0.7478670431086737
 40
0.9640082017958947
 40
1.189032518526752
 40
1.189032518526752
 40
1.189032518526752
 40
1.189032518526752
 10
-96.12591217163288
 20
-90.58704168332929
 30
0.0
 10
-96.17313739446332
 20
-90.62095734898962
 30
0.0
 10
-96.26939487743104
 20
-90.6900864201263
 30
0.0
 10
-96.44910166727186
 20
-90.73462445570195
 30
0.0
 10
-96.64212499096071
 20
-90.73395046092071
 30
0.0
 10
-96.84143888360764
 20
-90.6846031367172
 30
0.0
 10
-97.03823473318327
 20
-90.59337541055524
 30
0.0
 10
-97.15435124912118
 20
-90.50247706502392
 30
0.0
 10
-97.21357854423368
 20
-90.45611273731092
 30
0.0
 11
-96.12591217163288
 21
-90.58704168332929
 31
0.0
 11
-96.27248112753
 21
-90.67910415775441
 31
0.0
 11
-96.44583526942418
 21
-90.72646226052974
 31
0.0
 11
-96.63683588208411
 21
-90.72661894083274
 31
0.0
 11
-96.83541364400007
 21
-90.67956636739589
 31
0.0
 11
-97.0310999158436
 21
-90.58778464941463
 31
0.0
 11
-97.21357854423368
 21
-90.45611273731092
 31
0.0
  0
SPLINE
  5
119
330
47
100
AcDbEntity
  8
0
  6
Continuous
 62
     7
100
AcDbSpline
210
0.0
220
0.0
230
1.0
 70
     8
 71
     3
 72
    13
 73
     9
 74
     7
 42
0.000000001
 43
0.0000000001
 44
0.00000001
 40
0.0
 40
0.0
 40
0.0
 40
0.0
 40
0.2032288850963353
 40
0.42086395842945
 40
0.6553902864140873
 40
0.9047254370535682
 40
1.16345599386522
 40
1.424308201413227
 40
1.424308201413227
 40
1.424308201413227
 40
1.424308201413227
 10
-95.770758221206
 20
-90.10563179015
 30
0.0
 10
-95.73780245212602
 20
-90.04578862856347
 30
0.0
 10
-95.6695548072926
 20
-89.92186022594358
 30
0.0
 10
-95.64576229765659
 20
-89.69972589975255
 30
0.0
 10
-95.67626257803919
 20
-89.4663965478773
 30
0.0
 10
-95.7648833982525
 20
-89.23330038890313
 30
0.0
 10
-95.90060894327331
 20
-89.01303482826141
 30
0.0
 10
-96.02519707716864
 20
-88.89191828572913
 30
0.0
 10
-96.0877455193135
 20
-88.83111273731171
 30
0.0
 11
-95.770758221206
 21
-90.10563179015
 31
0.0
 11
-95.6842421404882
 21
-89.92173793778761
 31
0.0
 11
-95.65473281742142
 21
-89.70611273731174
 31
0.0
 11
-95.68424214048804
 21
-89.47345032121969
 31
0.0
 11
-95.77075822120572
 21
-89.23960638636564
 31
0.0
 11
-95.90838594877195
 21
-89.02051711304492
 31
0.0
 11
-96.0877455193135
 21
-88.83111273731171
 31
0.0
  0
SPLINE
  5
11A
330
47
100
AcDbEntity
  8
0
  6
Continuous
 62
     7
100
AcDbSpline
210
0.0
220
0.0
230
1.0
 70
     8
 71
     3
 72
     9
 73
     5
 74
     3
 42
0.000000001
 43
0.0000000001
 44
0.00000001
 40
0.0
 40
0.0
 40
0.0
 40
0.0
 40
0.1088420961186998
 40
0.2144924257404343
 40
0.2144924257404343
 40
0.2144924257404343
 40
0.2144924257404343
 10
-101.225094101972
 20
-101.5308107527221
 30
0.0
 10
-101.2573664565858
 20
-101.5140793515223
 30
0.0
 10
-101.3209647954733
 20
-101.4811072113652
 30
0.0
 10
-101.389139502966
 20
-101.4591204533916
 30
0.0
 10
-101.4227196214631
 20
-101.4482906711695
 30
0.0
 11
-101.225094101972
 21
-101.5308107527221
 31
0.0
 11
-101.3230895651973
 21
-101.4834452463324
 31
0.0
 11
-101.4227196214631
 21
-101.4482906711695
 31
0.0
  0
SPLINE
  5
11B
330
47
100
AcDbEntity
  8
0
  6
Continuous
 62
     7
100
AcDbSpline
210
0.0
220
0.0
230
1.0
 70
     8
 71
     3
 72
    17
 73
    13
 74
    11
 42
0.000000001
 43
0.0000000001
 44
0.00000001
 40
0.0
 40
0.0
 40
0.0
 40
0.0
 40
0.2131868451801515
 40
0.4406714182616282
 40
0.6895572016062875
 40
0.9581437233568306
 40
1.238214278488934
 40
1.51828483362107
 40
1.786871355371667
 40
2.035757138716286
 40
2.263241711797767
 40
2.476428556977965
 40
2.476428556977965
 40
2.476428556977965
 40
2.476428556977965
 10
-102.9085313178253
 20
-104.7050522988439
 30
0.0
 10
-102.8604702089641
 20
-104.6513654157094
 30
0.0
 10
-102.7611247046469
 20
-104.5403910418488
 30
0.0
 10
-102.7082614319293
 20
-104.3079722721296
 30
0.0
 10
-102.7281999594416
 20
-104.0582308370579
 30
0.0
 10
-102.822359633626
 20
-103.8060165639329
 30
0.0
 10
-102.9792477876439
 20
-103.5757064681937
 30
0.0
 10
-103.1847830726794
 20
-103.3875260237368
 30
0.0
 10
-103.4209590823368
 20
-103.2583015048836
 30
0.0
 10
-103.665290638006
 20
-103.2028901326281
 30
0.0
 10
-103.9028774585579
 20
-103.2220085222117
 30
0.0
 10
-104.0269058185259
 20
-103.3044815893636
 30
0.0
 10
-104.0869079250998
 20
-103.3443801960105
 30
0.0
 11
-102.9085313178253
 21
-104.7050522988439
 31
0.0
 11
-102.7796922664814
 21
-104.5352019768056
 31
0.0
 11
-102.7211376477138
 21
-104.3153825281334
 31
0.0
 11
-102.7386014597234
 21
-104.0671101983925
 31
0.0
 11
-102.8303718965238
 21
-103.8146881175766
 31
0.0
 11
-102.9874679892724
 21
-103.5828253716281
 31
0.0
 11
-103.1945102939456
 21
-103.3942173140292
 31
0.0
 11
-103.4312332995029
 21
-103.2673278401005
 31
0.0
 11
-103.6744643487728
 21
-103.2145756731693
 31
0.0
 11
-103.9003941249351
 21
-103.2411269374865
 31
0.0
 11
-104.0869079250998
 21
-103.3443801960105
 31
0.0
  0
SPLINE
  5
11C
330
47
100
AcDbEntity
  8
0
  6
Continuous
 62
     7
100
AcDbSpline
210
0.0
220
0.0
230
1.0
 70
     8
 71
     3
 72
    11
 73
     7
 74
     5
 42
0.000000001
 43
0.0000000001
 44
0.00000001
 40
0.0
 40
0.0
 40
0.0
 40
0.0
 40
0.1206520291163806
 40
0.2441615189902654
 40
0.372855153222198
 40
0.5081863407462246
 40
0.5081863407462246
 40
0.5081863407462246
 40
0.5081863407462246
 10
-104.0869079250998
 20
-103.3443801960105
 30
0.0
 10
-104.1155531638995
 20
-103.3728969838625
 30
0.0
 10
-104.1735220495525
 20
-103.4306059463753
 30
0.0
 10
-104.232479840281
 20
-103.5417497936619
 30
0.0
 10
-104.2705450101194
 20
-103.6662840640816
 30
0.0
 10
-104.2749067801376
 20
-103.7544996095888
 30
0.0
 10
-104.2771424848686
 20
-103.7997162474276
 30
0.0
 11
-104.0869079250998
 21
-103.3443801960105
 31
0.0
 11
-104.168116067253
 21
-103.4336110772
 31
0.0
 11
-104.2280369616328
 21
-103.5416114526161
 31
0.0
 11
-104.264767849937
 21
-103.6649520130595
 31
0.0
 11
-104.2771424848686
 21
-103.7997162474276
 31
0.0
  0
SPLINE
  5
11D
330
47
100
AcDbEntity
  8
0
  6
Continuous
 62
     7
100
AcDbSpline
210
0.0
220
0.0
230
1.0
 70
     8
 71
     3
 72
     9
 73
     5
 74
     3
 42
0.000000001
 43
0.0000000001
 44
0.00000001
 40
0.0
 40
0.0
 40
0.0
 40
0.0
 40
0.2147221608991677
 40
0.4170505305385344
 40
0.4170505305385344
 40
0.4170505305385344
 40
0.4170505305385344
 10
-101.1234357092467
 20
-100.9836236084483
 30
0.0
 10
-101.1964708533285
 20
-100.9874906302771
 30
0.0
 10
-101.3383255387536
 20
-100.9950014877671
 30
0.0
 10
-101.4552049286293
 20
-101.0753731654116
 30
0.0
 10
-101.5119079250997
 20
-101.1143647812656
 30
0.0
 11
-101.1234357092467
 21
-100.9836236084483
 31
0.0
 11
-101.335920697436
 21
-101.0145386043004
 31
0.0
 11
-101.5119079250997
 21
-101.1143647812656
 31
0.0
  0
SPLINE
  5
11E
330
47
100
AcDbEntity
  8
0
  6
Continuous
 62
     7
100
AcDbSpline
210
0.0
220
0.0
230
1.0
 70
     8
 71
     3
 72
    11
 73
     7
 74
     5
 42
0.000000001
 43
0.0000000001
 44
0.00000001
 40
0.0
 40
0.0
 40
0.0
 40
0.0
 40
0.8440184232445583
 40
1.703425917054298
 40
2.58524855152835
 40
3.494815683182372
 40
3.494815683182372
 40
3.494815683182372
 40
3.494815683182372
 10
-100.5176911491071
 20
-107.5696551195109
 30
0.0
 10
-100.3389788751467
 20
-107.3515849607969
 30
0.0
 10
-99.97829586078097
 20
-106.9114685398176
 30
0.0
 10
-99.56998016890677
 20
-106.1475529204065
 30
0.0
 10
-99.25320599855218
 20
-105.3189823841496
 30
0.0
 10
-99.13898504249629
 20
-104.731819292467
 30
0.0
 10
-99.08099006216199
 20
-104.4336908436405
 30
0.0
 11
-100.5176911491071
 21
-107.5696551195109
 31
0.0
 11
-100.00405296912
 21
-106.8999216498318
 31
0.0
 11
-99.58982522412899
 21
-106.146929871419
 31
0.0
 11
-99.2807174293018
 21
-105.3210584938496
 31
0.0
 11
-99.08099006216199
 21
-104.4336908436405
 31
0.0
  0
SPLINE
  5
11F
330
47
100
AcDbEntity
  8
0
  6
Continuous
 62
     7
100
AcDbSpline
210
0.0
220
0.0
230
1.0
 70
     8
 71
     3
 72
     9
 73
     5
 74
     3
 42
0.000000001
 43
0.0000000001
 44
0.00000001
 40
0.0
 40
0.0
 40
0.0
 40
0.0
 40
1.093324213457123
 40
2.216007598771024
 40
2.216007598771024
 40
2.216007598771024
 40
2.216007598771024
 10
-97.94269114910708
 20
-105.3396397047661
 30
0.0
 10
-97.71253540657557
 20
-105.0543871739334
 30
0.0
 10
-97.24604353711561
 20
-104.476222179425
 30
0.0
 10
-96.96360927973659
 20
-103.7889649620964
 30
0.0
 10
-96.82052121961229
 20
-103.4407837238192
 30
0.0
 11
-97.94269114910708
 21
-105.3396397047661
 31
0.0
 11
-97.2970271489998
 21
-104.4573269275673
 31
0.0
 11
-96.82052121961229
 21
-103.4407837238192
 31
0.0
  0
SPLINE
  5
120
330
47
100
AcDbEntity
  8
0
  6
Continuous
 62
     7
100
AcDbSpline
210
0.0
220
0.0
230
1.0
 70
     8
 71
     3
 72
    11
 73
     7
 74
     5
 42
0.000000001
 43
0.0000000001
 44
0.00000001
 40
0.0
 40
0.0
 40
0.0
 40
0.0
 40
0.5952740035010183
 40
1.11493953171321
 40
1.541256530587906
 40
1.874013368055814
 40
1.874013368055814
 40
1.874013368055814
 40
1.874013368055814
 10
-96.929418442974
 20
-88.1022026037439
 30
0.0
 10
-97.00680153467788
 20
-88.28552458279435
 30
0.0
 10
-97.15173894438024
 20
-88.62888397373462
 30
0.0
 10
-97.42926118558238
 20
-89.06066095722895
 30
0.0
 10
-97.71297534809835
 20
-89.39184258448465
 30
0.0
 10
-97.94507282179534
 20
-89.49866271817096
 30
0.0
 10
-98.04681789621827
 20
-89.54548968474674
 30
0.0
 11
-96.929418442974
 21
-88.1022026037439
 31
0.0
 11
-97.17747992198764
 21
-88.64332794239742
 31
0.0
 11
-97.45800473920804
 21
-89.08077289963313
 31
0.0
 11
-97.7538203770767
 21
-89.38775709946766
 31
0.0
 11
-98.04681789621827
 21
-89.54548968474674
 31
0.0
  0
SPLINE
  5
121
330
47
100
AcDbEntity
  8
0
  6
Continuous
 62
     7
100
AcDbSpline
210
0.0
220
0.0
230
1.0
 70
     8
 71
     3
 72
    21
 73
    17
 74
    15
 42
0.000000001
 43
0.0000000001
 44
0.00000001
 40
0.0
 40
0.0
 40
0.0
 40
0.0
 40
0.0854757401916114
 40
0.1705936449088226
 40
0.2608568769133212
 40
0.3332112244863821
 40
0.4153084602802526
 40
0.483471488677322
 40
0.5576350636789746
 40
0.6217329600694537
 40
0.7406205390521051
 40
0.8658851983199984
 40
0.925115994228335
 40
0.9808984332743008
 40
1.04089864804859
 40
1.096439930336916
 40
1.096439930336916
 40
1.096439930336916
 40
1.096439930336916
 10
-97.10444975569777
 20
-90.36160443415469
 30
0.0
 10
-97.08269780414521
 20
-90.38001278950978
 30
0.0
 10
-97.03928495719424
 20
-90.41675242806322
 30
0.0
 10
-96.9700527236721
 20
-90.46942242244168
 30
0.0
 10
-96.90219169202476
 20
-90.51653327176122
 30
0.0
 10
-96.83293460306021
 20
-90.55968318142746
 30
0.0
 10
-96.76793602665232
 20
-90.59558357836434
 30
0.0
 10
-96.70034002103145
 20
-90.62772219684368
 30
0.0
 10
-96.63628045099314
 20
-90.6530501630798
 30
0.0
 10
-96.55427830860864
 20
-90.6782227617279
 30
0.0
 10
-96.4525640004864
 20
-90.69633078837643
 30
0.0
 10
-96.35029700511234
 20
-90.69171692813413
 30
0.0
 10
-96.2725171835633
 20
-90.67160233584855
 30
0.0
 10
-96.21842175299504
 20
-90.64940162788919
 30
0.0
 10
-96.16853771658083
 20
-90.62107257224031
 30
0.0
 10
-96.13844978860232
 20
-90.59695815870383
 30
0.0
 10
-96.12398639926059
 20
-90.58536625385051
 30
0.0
 11
-97.10444975569777
 21
-90.36160443415469
 31
0.0
 11
-97.03872613824174
 21
-90.41625337692813
 31
0.0
 11
-96.97106626349387
 21
-90.46789830813555
 31
0.0
 11
-96.89683077500342
 21
-90.51924558940428
 31
0.0
 11
-96.83538803766618
 21
-90.55745477233705
 31
0.0
 11
-96.76345399175412
 21
-90.59702053033068
 31
0.0
 11
-96.70184929487428
 21
-90.62619345959999
 31
0.0
 11
-96.63281624747957
 21
-90.65329833526626
 31
0.0
 11
-96.57150131382127
 21
-90.67198039320917
 31
0.0
 11
-96.45425635518238
 21
-90.6916749705804
 31
0.0
 11
-96.32917578369927
 21
-90.68488630717448
 31
0.0
 11
-96.27184672867452
 21
-90.66999782919416
 31
0.0
 11
-96.22020718046718
 21
-90.64890191138255
 31
0.0
 11
-96.1681978320415
 21
-90.61898446114498
 31
0.0
 11
-96.12398639926059
 21
-90.58536625385051
 31
0.0
  0
ENDBLK
  5
49
330
47
100
AcDbEntity
  8
0
100
AcDbBlockEnd
  0
BLOCK
  5
4C
330
4A
100
AcDbEntity
  8
0
100
AcDbBlockBegin
  2
Allg1
 70
     0
 10
-84.49999999999977
 20
-97.5
 30
0.0
  3
Allg1
  1

  0
INSERT
  5
4B
330
4A
100
AcDbEntity
  8
0
100
AcDbBlockReference
  2
MSBV_2_5_NS_35_YE-select__1
 10
-104.2771424848687
 20
-116.3366708655411
 30
0.0
  0
MTEXT
  5
123
330
4A
100
AcDbEntity
  8
1
 62
     6
100
AcDbMText
 10
-84.50123380798308
 20
-118.8366708655411
 30
0.0
 40
2.5
 41
0.0
 71
     2
 72
     1
  1
 
  7
CONVERTER_11
 73
     1
 44
1.32052821128451
  0
ENDBLK
  5
4D
330
4A
100
AcDbEntity
  8
0
100
AcDbBlockEnd
  0
BLOCK
  5
4F
330
4E
100
AcDbEntity
  8
0
100
AcDbBlockBegin
  2
MSBV_2_5_NS_35_YE-select__2
 70
     0
 10
-175.2884211592465
 20
-103.7323214523191
 30
0.0
  3
MSBV_2_5_NS_35_YE-select__2
  1

  0
LINE
  5
124
330
4E
100
AcDbEntity
  8
0
  6
Continuous
 62
     7
100
AcDbLine
 10
-137.4175563796011
 20
-103.7323214523186
 30
0.0
 11
-137.088421159249
 21
-103.7323214523187
 31
0.0
  0
LINE
  5
125
330
4E
100
AcDbEntity
  8
0
  6
Continuous
 62
     7
100
AcDbLine
 10
-137.4175563796011
 20
-103.7323214523186
 30
0.0
 11
-137.4175563796019
 21
-103.5140638752467
 31
0.0
  0
LINE
  5
126
330
4E
100
AcDbEntity
  8
0
  6
Continuous
 62
     7
100
AcDbLine
 10
-132.5884211592467
 20
-103.7323214523189
 30
0.0
 11
-137.088421159249
 21
-103.7323214523187
 31
0.0
  0
LINE
  5
127
330
4E
100
AcDbEntity
  8
0
  6
Continuous
 62
     7
100
AcDbLine
 10
-140.2548643331942
 20
-99.23232145231847
 30
0.0
 11
-141.1720448064997
 21
-99.23232145231847
 31
0.0
  0
LINE
  5
128
330
4E
100
AcDbEntity
  8
0
  6
Continuous
 62
     7
100
AcDbLine
 10
-141.1720448064997
 20
-99.23232145231847
 30
0.0
 11
-141.1720448065009
 21
-103.0323214523185
 31
0.0
  0
LINE
  5
129
330
4E
100
AcDbEntity
  8
0
  6
Continuous
 62
     7
100
AcDbLine
 10
-141.1720448065009
 20
-103.0323214523185
 30
0.0
 11
-140.2548643331942
 21
-103.0323214523185
 31
0.0
  0
LINE
  5
12A
330
4E
100
AcDbEntity
  8
0
  6
Continuous
 62
     7
100
AcDbLine
 10
-137.088421159249
 20
-103.7323214523187
 30
0.0
 11
-137.08842115925
 21
-103.5140638752486
 31
0.0
  0
LINE
  5
12B
330
4E
100
AcDbEntity
  8
0
  6
Continuous
 62
     7
100
AcDbLine
 10
-174.3884211592459
 20
-98.5823214523185
 30
0.0
 11
-175.2884211592465
 21
-98.5823214523185
 31
0.0
  0
LINE
  5
12C
330
4E
100
AcDbEntity
  8
0
  6
Continuous
 62
     7
100
AcDbLine
 10
-173.0413294857871
 20
-98.5823214523185
 30
0.0
 11
-174.3884211592459
 21
-98.5823214523185
 31
0.0
  0
LINE
  5
12D
330
4E
100
AcDbEntity
  8
0
  6
Continuous
 62
     7
100
AcDbLine
 10
-132.5884211592467
 20
-98.5823214523185
 30
0.0
 11
-137.088421159249
 21
-98.5823214523185
 31
0.0
  0
LINE
  5
12E
330
4E
100
AcDbEntity
  8
0
  6
Continuous
 62
     7
100
AcDbLine
 10
-137.088421159249
 20
-98.5823214523185
 30
0.0
 11
-140.2548643331942
 21
-98.5823214523185
 31
0.0
  0
LINE
  5
12F
330
4E
100
AcDbEntity
  8
0
  6
Continuous
 62
     7
100
AcDbLine
 10
-169.0884211592513
 20
-98.95677500817484
 30
0.0
 11
-169.0884211592489
 21
-98.5823214523185
 31
0.0
  0
LINE
  5
130
330
4E
100
AcDbEntity
  8
0
  6
Continuous
 62
     7
100
AcDbLine
 10
-169.0884211592489
 20
-98.5823214523185
 30
0.0
 11
-165.9219779853183
 21
-98.58232145231841
 31
0.0
  0
LINE
  5
131
330
4E
100
AcDbEntity
  8
0
  6
Continuous
 62
     7
100
AcDbLine
 10
-165.0047975120023
 20
-99.23232145231847
 30
0.0
 11
-165.9219779853196
 21
-99.2323214523185
 31
0.0
  0
LINE
  5
132
330
4E
100
AcDbEntity
  8
0
  6
Continuous
 62
     7
100
AcDbLine
 10
-165.9219779853183
 20
-98.58232145231841
 30
0.0
 11
-165.9219779853196
 21
-99.2323214523185
 31
0.0
  0
LINE
  5
133
330
4E
100
AcDbEntity
  8
0
  6
Continuous
 62
     7
100
AcDbLine
 10
-169.0884211592489
 20
-98.5823214523185
 30
0.0
 11
-173.0413294857871
 21
-98.5823214523185
 31
0.0
  0
LINE
  5
134
330
4E
100
AcDbEntity
  8
0
  6
Continuous
 62
     7
100
AcDbLine
 10
-156.9884211592503
 20
-98.5823214523185
 30
0.0
 11
-156.2846091807894
 21
-98.5823214523185
 31
0.0
  0
LINE
  5
135
330
4E
100
AcDbEntity
  8
0
  6
Continuous
 62
     7
100
AcDbLine
 10
-149.8922331377161
 20
-98.5823214523185
 30
0.0
 11
-149.1884211592535
 21
-98.5823214523185
 31
0.0
  0
LINE
  5
136
330
4E
100
AcDbEntity
  8
0
  6
Continuous
 62
     7
100
AcDbLine
 10
-150.1982287803832
 20
-98.5823214523185
 30
0.0
 11
-149.8922331377161
 21
-98.5823214523185
 31
0.0
  0
LINE
  5
137
330
4E
100
AcDbEntity
  8
0
  6
Continuous
 62
     7
100
AcDbLine
 10
-156.2846091807894
 20
-98.5823214523185
 30
0.0
 11
-155.9786135381219
 21
-98.5823214523185
 31
0.0
  0
LINE
  5
138
330
4E
100
AcDbEntity
  8
0
  6
Continuous
 62
     7
100
AcDbLine
 10
-140.2548643331942
 20
-98.5823214523185
 30
0.0
 11
-149.1884211592535
 21
-98.5823214523185
 31
0.0
  0
LINE
  5
139
330
4E
100
AcDbEntity
  8
0
  6
Continuous
 62
     7
100
AcDbLine
 10
-155.9786135381219
 20
-98.5823214523185
 30
0.0
 11
-150.1982287803832
 21
-98.5823214523185
 31
0.0
  0
LINE
  5
13A
330
4E
100
AcDbEntity
  8
0
  6
Continuous
 62
     7
100
AcDbLine
 10
-165.9219779853183
 20
-98.58232145231841
 30
0.0
 11
-156.9884211592503
 21
-98.5823214523185
 31
0.0
  0
LINE
  5
13B
330
4E
100
AcDbEntity
  8
0
  6
Continuous
 62
     7
100
AcDbLine
 10
-149.0059856343397
 20
-99.91413894197359
 30
0.0
 11
-149.1884211592341
 21
-99.90732145231621
 31
0.0
  0
LINE
  5
13C
330
4E
100
AcDbEntity
  8
0
  6
Continuous
 62
     7
100
AcDbLine
 10
-149.8922331377161
 20
-103.7323214523185
 30
0.0
 11
-150.1982287803832
 21
-103.7323214523185
 31
0.0
  0
LINE
  5
13D
330
4E
100
AcDbEntity
  8
0
  6
Continuous
 62
     7
100
AcDbLine
 10
-149.0059856343397
 20
-99.91413894197359
 30
0.0
 11
-149.0059856343397
 21
-102.4005039626585
 31
0.0
  0
LINE
  5
13E
330
4E
100
AcDbEntity
  8
0
  6
Continuous
 62
     7
100
AcDbLine
 10
-145.8631054385697
 20
-102.3686911927875
 30
0.0
 11
-145.863105438569
 21
-99.94595171184656
 31
0.0
  0
LINE
  5
13F
330
4E
100
AcDbEntity
  8
0
  6
Continuous
 62
     7
100
AcDbLine
 10
-145.4382133511755
 20
-99.94760714890123
 30
0.0
 11
-149.1884211592341
 21
-99.90732145231621
 31
0.0
  0
LINE
  5
140
330
4E
100
AcDbEntity
  8
0
  6
Continuous
 62
     7
100
AcDbLine
 10
-160.7386289673347
 20
-99.94760714890128
 30
0.0
 11
-160.7386289673344
 21
-99.95025254208997
 31
0.0
  0
LINE
  5
141
330
4E
100
AcDbEntity
  8
0
  6
Continuous
 62
     7
100
AcDbLine
 10
-160.7386289673344
 20
-99.95025254208997
 30
0.0
 11
-160.7386289673344
 21
-102.3643903625444
 31
0.0
  0
LINE
  5
142
330
4E
100
AcDbEntity
  8
0
  6
Continuous
 62
     7
100
AcDbLine
 10
-160.7386289673344
 20
-102.3643903625444
 30
0.0
 11
-160.7386289673347
 21
-102.3670357557331
 31
0.0
  0
LINE
  5
143
330
4E
100
AcDbEntity
  8
0
  6
Continuous
 62
     7
100
AcDbLine
 10
-156.9884211592503
 20
-98.5823214523185
 30
0.0
 11
-156.9884211592535
 21
-99.90732145231601
 31
0.0
  0
LINE
  5
144
330
4E
100
AcDbEntity
  8
0
  6
Continuous
 62
     7
100
AcDbLine
 10
-160.3137368799327
 20
-102.3686911927875
 30
0.0
 11
-160.3137368799334
 21
-99.94595171184656
 31
0.0
  0
LINE
  5
145
330
4E
100
AcDbEntity
  8
0
  6
Continuous
 62
     7
100
AcDbLine
 10
-156.9884211592535
 20
-99.90732145231601
 30
0.0
 11
-157.1708566841652
 21
-99.91413894197362
 31
0.0
  0
LINE
  5
146
330
4E
100
AcDbEntity
  8
0
  6
Continuous
 62
     7
100
AcDbLine
 10
-156.9884211592535
 20
-99.90732145231601
 30
0.0
 11
-156.9884211592535
 21
-102.4073214523161
 31
0.0
  0
LINE
  5
147
330
4E
100
AcDbEntity
  8
0
  6
Continuous
 62
     7
100
AcDbLine
 10
-157.1708566841652
 20
-99.91413894197362
 30
0.0
 11
-157.1708566841652
 21
-102.4005039626585
 31
0.0
  0
LINE
  5
148
330
4E
100
AcDbEntity
  8
0
  6
Continuous
 62
     7
100
AcDbLine
 10
-156.9884211592535
 20
-99.90732145231601
 30
0.0
 11
-160.7386289673347
 21
-99.94760714890128
 31
0.0
  0
LINE
  5
149
330
4E
100
AcDbEntity
  8
0
  6
Continuous
 62
     7
100
AcDbLine
 10
-160.7386289673344
 20
-102.3643903625444
 30
0.0
 11
-157.1708566841652
 21
-102.4005039626585
 31
0.0
  0
LINE
  5
14A
330
4E
100
AcDbEntity
  8
0
  6
Continuous
 62
     7
100
AcDbLine
 10
-157.1708566841652
 20
-99.91413894197362
 30
0.0
 11
-160.7386289673344
 21
-99.95025254208997
 31
0.0
  0
LINE
  5
14B
330
4E
100
AcDbEntity
  8
0
  6
Continuous
 62
     7
100
AcDbLine
 10
-145.4382133511728
 20
-99.95025254208991
 30
0.0
 11
-145.4382133511755
 21
-99.94760714890123
 31
0.0
  0
LINE
  5
14C
330
4E
100
AcDbEntity
  8
0
  6
Continuous
 62
     7
100
AcDbLine
 10
-145.4382133511728
 20
-102.3643903625444
 30
0.0
 11
-145.4382133511728
 21
-99.95025254208991
 31
0.0
  0
LINE
  5
14D
330
4E
100
AcDbEntity
  8
0
  6
Continuous
 62
     7
100
AcDbLine
 10
-149.0059856343397
 20
-99.91413894197359
 30
0.0
 11
-145.4382133511728
 21
-99.95025254208991
 31
0.0
  0
LINE
  5
14E
330
4E
100
AcDbEntity
  8
0
  6
Continuous
 62
     7
100
AcDbLine
 10
-145.4382133511755
 20
-102.3670357557331
 30
0.0
 11
-145.4382133511728
 21
-102.3643903625444
 31
0.0
  0
LINE
  5
14F
330
4E
100
AcDbEntity
  8
0
  6
Continuous
 62
     7
100
AcDbLine
 10
-145.4382133511728
 20
-102.3643903625444
 30
0.0
 11
-149.0059856343397
 21
-102.4005039626585
 31
0.0
  0
LINE
  5
150
330
4E
100
AcDbEntity
  8
0
  6
Continuous
 62
     7
100
AcDbLine
 10
-155.9786135381219
 20
-103.7323214523185
 30
0.0
 11
-156.2846091807894
 21
-103.7323214523185
 31
0.0
  0
LINE
  5
151
330
4E
100
AcDbEntity
  8
0
  6
Continuous
 62
     7
100
AcDbLine
 10
-150.1982287803832
 20
-103.7323214523185
 30
0.0
 11
-155.9786135381219
 21
-103.7323214523185
 31
0.0
  0
LINE
  5
152
330
4E
100
AcDbEntity
  8
0
  6
Continuous
 62
     7
100
AcDbLine
 10
-156.9884211592535
 20
-102.4073214523161
 30
0.0
 11
-156.9884211592503
 21
-103.7323214523185
 31
0.0
  0
LINE
  5
153
330
4E
100
AcDbEntity
  8
0
  6
Continuous
 62
     7
100
AcDbLine
 10
-157.1708566841652
 20
-102.4005039626585
 30
0.0
 11
-156.9884211592535
 21
-102.4073214523161
 31
0.0
  0
LINE
  5
154
330
4E
100
AcDbEntity
  8
0
  6
Continuous
 62
     7
100
AcDbLine
 10
-160.7386289673347
 20
-102.3670357557331
 30
0.0
 11
-156.9884211592535
 21
-102.4073214523161
 31
0.0
  0
LINE
  5
155
330
4E
100
AcDbEntity
  8
0
  6
Continuous
 62
     7
100
AcDbLine
 10
-149.1884211592535
 20
-102.4073214523161
 30
0.0
 11
-149.0059856343397
 21
-102.4005039626585
 31
0.0
  0
LINE
  5
156
330
4E
100
AcDbEntity
  8
0
  6
Continuous
 62
     7
100
AcDbLine
 10
-156.2846091807894
 20
-103.7323214523185
 30
0.0
 11
-156.9884211592503
 21
-103.7323214523185
 31
0.0
  0
LINE
  5
157
330
4E
100
AcDbEntity
  8
0
  6
Continuous
 62
     7
100
AcDbLine
 10
-156.9884211592503
 20
-103.7323214523185
 30
0.0
 11
-165.9219779853183
 21
-103.7323214523184
 31
0.0
  0
LINE
  5
158
330
4E
100
AcDbEntity
  8
0
  6
Continuous
 62
     7
100
AcDbLine
 10
-140.2548643331942
 20
-103.7323214523186
 30
0.0
 11
-149.1884211592535
 21
-103.7323214523185
 31
0.0
  0
LINE
  5
159
330
4E
100
AcDbEntity
  8
0
  6
Continuous
 62
     7
100
AcDbLine
 10
-149.1884211592535
 20
-102.4073214523161
 30
0.0
 11
-145.4382133511755
 21
-102.3670357557331
 31
0.0
  0
LINE
  5
15A
330
4E
100
AcDbEntity
  8
0
  6
Continuous
 62
     7
100
AcDbLine
 10
-167.4947660993995
 20
-103.0323214523185
 30
0.0
 11
-167.4947660993997
 21
-99.23232145231847
 31
0.0
  0
LINE
  5
15B
330
4E
100
AcDbEntity
  8
0
  6
Continuous
 62
     7
100
AcDbLine
 10
-165.0047975120054
 20
-103.0323214523185
 30
0.0
 11
-165.0047975120023
 21
-99.23232145231847
 31
0.0
  0
LINE
  5
15C
330
4E
100
AcDbEntity
  8
0
  6
Continuous
 62
     7
100
AcDbLine
 10
-167.4947660993997
 20
-99.23232145231847
 30
0.0
 11
-165.9219779853196
 21
-99.2323214523185
 31
0.0
  0
LINE
  5
15D
330
4E
100
AcDbEntity
  8
0
  6
Continuous
 62
     7
100
AcDbLine
 10
-169.0884211592499
 20
-103.5140638752488
 30
0.0
 11
-169.0884211592489
 21
-103.7323214523187
 31
0.0
  0
LINE
  5
15E
330
4E
100
AcDbEntity
  8
0
  6
Continuous
 62
     7
100
AcDbLine
 10
-165.9219779853183
 20
-103.0323214523185
 30
0.0
 11
-167.4947660993995
 21
-103.0323214523185
 31
0.0
  0
LINE
  5
15F
330
4E
100
AcDbEntity
  8
0
  6
Continuous
 62
     7
100
AcDbLine
 10
-165.9219779853183
 20
-103.0323214523185
 30
0.0
 11
-165.0047975120054
 21
-103.0323214523185
 31
0.0
  0
LINE
  5
160
330
4E
100
AcDbEntity
  8
0
  6
Continuous
 62
     7
100
AcDbLine
 10
-168.7592859389081
 20
-103.5140638752467
 30
0.0
 11
-168.7592859389097
 21
-103.7323214523186
 31
0.0
  0
LINE
  5
161
330
4E
100
AcDbEntity
  8
0
  6
Continuous
 62
     7
100
AcDbLine
 10
-168.7592859389081
 20
-103.5140638752467
 30
0.0
 11
-169.0884211592499
 21
-103.5140638752488
 31
0.0
  0
LINE
  5
162
330
4E
100
AcDbEntity
  8
0
  6
Continuous
 62
     7
100
AcDbLine
 10
-165.9219779853183
 20
-103.7323214523184
 30
0.0
 11
-165.9219779853183
 21
-103.0323214523185
 31
0.0
  0
LINE
  5
163
330
4E
100
AcDbEntity
  8
0
  6
Continuous
 62
     7
100
AcDbLine
 10
-168.7592859389097
 20
-103.7323214523186
 30
0.0
 11
-165.9219779853183
 21
-103.7323214523184
 31
0.0
  0
LINE
  5
164
330
4E
100
AcDbEntity
  8
0
  6
Continuous
 62
     7
100
AcDbLine
 10
-173.0413294857871
 20
-103.7323214523189
 30
0.0
 11
-169.0884211592489
 21
-103.7323214523187
 31
0.0
  0
LINE
  5
165
330
4E
100
AcDbEntity
  8
0
  6
Continuous
 62
     7
100
AcDbLine
 10
-137.4175563796019
 20
-103.5140638752467
 30
0.0
 11
-137.08842115925
 21
-103.5140638752486
 31
0.0
  0
LINE
  5
166
330
4E
100
AcDbEntity
  8
0
  6
Continuous
 62
     7
100
AcDbLine
 10
-137.0884211592503
 20
-98.95677500817249
 30
0.0
 11
-137.088421159249
 21
-98.5823214523185
 31
0.0
  0
LINE
  5
167
330
4E
100
AcDbEntity
  8
0
  6
Continuous
 62
     7
100
AcDbLine
 10
-137.0884211592503
 20
-98.95677500817249
 30
0.0
 11
-137.08842115925
 21
-103.5140638752486
 31
0.0
  0
LINE
  5
168
330
4E
100
AcDbEntity
  8
0
  6
Continuous
 62
     7
100
AcDbLine
 10
-137.4175563796011
 20
-103.7323214523186
 30
0.0
 11
-140.2548643331942
 21
-103.7323214523186
 31
0.0
  0
LINE
  5
169
330
4E
100
AcDbEntity
  8
0
  6
Continuous
 62
     7
100
AcDbLine
 10
-140.2548643331942
 20
-103.0323214523185
 30
0.0
 11
-138.6820762191107
 21
-103.0323214523185
 31
0.0
  0
LINE
  5
16A
330
4E
100
AcDbEntity
  8
0
  6
Continuous
 62
     7
100
AcDbLine
 10
-138.6820762191107
 20
-103.0323214523185
 30
0.0
 11
-138.6820762191105
 21
-99.23232145231847
 31
0.0
  0
LINE
  5
16B
330
4E
100
AcDbEntity
  8
0
  6
Continuous
 62
     7
100
AcDbLine
 10
-138.6820762191105
 20
-99.23232145231847
 30
0.0
 11
-140.2548643331942
 21
-99.23232145231847
 31
0.0
  0
LINE
  5
16C
330
4E
100
AcDbEntity
  8
0
  6
Continuous
 62
     7
100
AcDbLine
 10
-140.2548643331942
 20
-103.7323214523186
 30
0.0
 11
-140.2548643331942
 21
-103.0323214523185
 31
0.0
  0
LINE
  5
16D
330
4E
100
AcDbEntity
  8
0
  6
Continuous
 62
     7
100
AcDbLine
 10
-140.2548643331942
 20
-98.5823214523185
 30
0.0
 11
-140.2548643331942
 21
-99.23232145231847
 31
0.0
  0
LINE
  5
16E
330
4E
100
AcDbEntity
  8
0
  6
Continuous
 62
     7
100
AcDbLine
 10
-132.5884211592467
 20
-103.7323214523189
 30
0.0
 11
-132.5884211592467
 21
-98.5823214523185
 31
0.0
  0
LINE
  5
16F
330
4E
100
AcDbEntity
  8
0
  6
Continuous
 62
     7
100
AcDbLine
 10
-173.4884211592463
 20
-103.7323214523186
 30
0.0
 11
-175.2884211592465
 21
-103.7323214523191
 31
0.0
  0
LINE
  5
170
330
4E
100
AcDbEntity
  8
0
  6
Continuous
 62
     7
100
AcDbLine
 10
-173.4884211592463
 20
-103.7323214523186
 30
0.0
 11
-173.0413294857871
 21
-103.7323214523189
 31
0.0
  0
LINE
  5
171
330
4E
100
AcDbEntity
  8
0
  6
Continuous
 62
     7
100
AcDbLine
 10
-173.4884211592462
 20
-99.5823214523204
 30
0.0
 11
-174.3884211592459
 21
-99.58232145232066
 31
0.0
  0
LINE
  5
172
330
4E
100
AcDbEntity
  8
0
  6
Continuous
 62
     7
100
AcDbLine
 10
-173.0413294857871
 20
-99.58232145232026
 30
0.0
 11
-173.4884211592462
 21
-99.5823214523204
 31
0.0
  0
LINE
  5
173
330
4E
100
AcDbEntity
  8
0
  6
Continuous
 62
     2
100
AcDbLine
 10
-174.3884211592459
 20
-99.58232145232066
 30
0.0
 11
-174.3884211592459
 21
-98.5823214523185
 31
0.0
  0
LINE
  5
174
330
4E
100
AcDbEntity
  8
0
  6
Continuous
 62
     7
100
AcDbLine
 10
-168.7592859389097
 20
-103.7323214523186
 30
0.0
 11
-169.0884211592489
 21
-103.7323214523187
 31
0.0
  0
LINE
  5
175
330
4E
100
AcDbEntity
  8
0
  6
Continuous
 62
     7
100
AcDbLine
 10
-173.0413294857871
 20
-103.7323214523189
 30
0.0
 11
-173.0413294857871
 21
-98.5823214523185
 31
0.0
  0
LINE
  5
176
330
4E
100
AcDbEntity
  8
0
  6
Continuous
 62
     7
100
AcDbLine
 10
-169.0884211592513
 20
-98.95677500817484
 30
0.0
 11
-169.0884211592499
 21
-103.5140638752488
 31
0.0
  0
LINE
  5
177
330
4E
100
AcDbEntity
  8
0
  6
Continuous
 62
     7
100
AcDbLine
 10
-173.4884211592462
 20
-99.5823214523204
 30
0.0
 11
-173.4884211592463
 21
-103.7323214523186
 31
0.0
  0
LINE
  5
178
330
4E
100
AcDbEntity
  8
0
  6
Continuous
 62
     7
100
AcDbLine
 10
-175.2884211592465
 20
-98.5823214523185
 30
0.0
 11
-175.2884211592465
 21
-103.7323214523191
 31
0.0
  0
LINE
  5
179
330
4E
100
AcDbEntity
  8
0
  6
Continuous
 62
     7
100
AcDbLine
 10
-155.9786135381219
 20
-98.5823214523185
 30
0.0
 11
-155.9786135381219
 21
-103.7323214523185
 31
0.0
  0
LINE
  5
17A
330
4E
100
AcDbEntity
  8
0
  6
Continuous
 62
     7
100
AcDbLine
 10
-149.8922331377161
 20
-103.7323214523185
 30
0.0
 11
-149.1884211592535
 21
-103.7323214523185
 31
0.0
  0
LINE
  5
17B
330
4E
100
AcDbEntity
  8
0
  6
Continuous
 62
     7
100
AcDbLine
 10
-149.1884211592535
 20
-103.7323214523185
 30
0.0
 11
-149.1884211592535
 21
-102.4073214523161
 31
0.0
  0
LINE
  5
17C
330
4E
100
AcDbEntity
  8
0
  6
Continuous
 62
     7
100
AcDbLine
 10
-149.1884211592341
 20
-99.90732145231621
 30
0.0
 11
-149.1884211592535
 21
-98.5823214523185
 31
0.0
  0
LINE
  5
17D
330
4E
100
AcDbEntity
  8
0
  6
Continuous
 62
     7
100
AcDbLine
 10
-149.1884211592535
 20
-102.4073214523161
 30
0.0
 11
-149.1884211592341
 21
-99.90732145231621
 31
0.0
  0
LINE
  5
17E
330
4E
100
AcDbEntity
  8
0
  6
Continuous
 62
     7
100
AcDbLine
 10
-149.8922331377161
 20
-103.7323214523185
 30
0.0
 11
-149.8922331377161
 21
-98.5823214523185
 31
0.0
  0
LINE
  5
17F
330
4E
100
AcDbEntity
  8
0
  6
Continuous
 62
     7
100
AcDbLine
 10
-156.2846091807894
 20
-98.5823214523185
 30
0.0
 11
-156.2846091807894
 21
-103.7323214523185
 31
0.0
  0
LINE
  5
180
330
4E
100
AcDbEntity
  8
0
  6
Continuous
 62
     7
100
AcDbLine
 10
-150.1982287803832
 20
-103.7323214523185
 30
0.0
 11
-150.1982287803832
 21
-98.5823214523185
 31
0.0
  0
SPLINE
  5
181
330
4E
100
AcDbEntity
  8
0
  6
Continuous
 62
     7
100
AcDbSpline
210
0.0
220
0.0
230
1.0
 70
     8
 71
     3
 72
    17
 73
    13
 74
    11
 42
0.000000001
 43
0.0000000001
 44
0.00000001
 40
0.0
 40
0.0
 40
0.0
 40
0.0
 40
0.4172040615781472
 40
0.9118740418050123
 40
1.471484574545886
 40
2.072961812454629
 40
2.687762498810771
 40
3.285754219320157
 40
3.838819392573105
 40
4.324818970648771
 40
4.732900194727476
 40
5.07183388780534
 40
5.07183388780534
 40
5.07183388780534
 40
5.07183388780534
 10
-168.7592859389081
 20
-103.5140638752467
 30
0.0
 10
-168.6667314500326
 20
-103.4092783977012
 30
0.0
 10
-168.4644370862362
 20
-103.1802509989262
 30
0.0
 10
-168.2683175242125
 20
-102.7234149733
 30
0.0
 10
-168.1241620976903
 20
-102.1902456876488
 30
0.0
 10
-168.0540425837901
 20
-101.6001315071008
 30
0.0
 10
-168.0582285065993
 20
-100.9938639744913
 30
0.0
 10
-168.1379134118693
 20
-100.4092761484394
 30
0.0
 10
-168.2867902874018
 20
-99.88076568262878
 30
0.0
 10
-168.4989147295625
 20
-99.44780792023097
 30
0.0
 10
-168.7560954166837
 20
-99.11131612117983
 30
0.0
 10
-168.984699497064
 20
-99.00500858431091
 30
0.0
 10
-169.0884211592513
 20
-98.95677500817484
 30
0.0
 11
-168.7592859389081
 21
-103.5140638752467
 31
0.0
 11
-168.4985277554804
 21
-103.1883885857151
 31
0.0
 11
-168.287699763211
 21
-102.7408956295559
 31
0.0
 11
-168.1406399499741
 21
-102.2009536322707
 31
0.0
 11
-168.0669992721243
 21
-101.6040014420807
 31
0.0
 11
-168.0716120230772
 21
-100.9892180613489
 31
0.0
 11
-168.1541743603019
 21
-100.3969532920121
 31
0.0
 11
-168.3092685580637
 21
-99.86607960233434
 31
0.0
 11
-168.52671443401
 21
-99.4314385098849
 31
0.0
 11
-168.7922412234635
 21
-99.12155819195549
 31
0.0
 11
-169.0884211592513
 21
-98.95677500817484
 31
0.0
  0
SPLINE
  5
182
330
4E
100
AcDbEntity
  8
0
  6
Continuous
 62
     7
100
AcDbSpline
210
0.0
220
0.0
230
1.0
 70
     8
 71
     3
 72
    17
 73
    13
 74
    11
 42
0.000000001
 43
0.0000000001
 44
0.00000001
 40
0.0
 40
0.0
 40
0.0
 40
0.0
 40
0.4172040615795521
 40
0.911874041808088
 40
1.471484574550806
 40
2.072961812461447
 40
2.68776249881923
 40
3.285754219329741
 40
3.838819392583219
 40
4.324818970658797
 40
4.732900194736959
 40
5.071833887814504
 40
5.071833887814504
 40
5.071833887814504
 40
5.071833887814504
 10
-137.4175563796019
 20
-103.5140638752467
 30
0.0
 10
-137.5101108684777
 20
-103.4092783977009
 30
0.0
 10
-137.7124052322748
 20
-103.180250998925
 30
0.0
 10
-137.9085247942991
 20
-102.7234149732972
 30
0.0
 10
-138.0526802208212
 20
-102.1902456876442
 30
0.0
 10
-138.1227997347211
 20
-101.6001315070943
 30
0.0
 10
-138.1186138119109
 20
-100.9938639744833
 30
0.0
 10
-138.0389289066395
 20
-100.4092761484303
 30
0.0
 10
-137.8900520311054
 20
-99.88076568261965
 30
0.0
 10
-137.6779275889429
 20
-99.44780792022283
 30
0.0
 10
-137.4207469018195
 20
-99.11131612117336
 30
0.0
 10
-137.192142821438
 20
-99.0050085843073
 30
0.0
 10
-137.0884211592503
 20
-98.95677500817249
 30
0.0
 11
-137.4175563796019
 21
-103.5140638752467
 31
0.0
 11
-137.6783145630305
 21
-103.188388585714
 31
0.0
 11
-137.8891425553005
 21
-102.7408956295532
 31
0.0
 11
-138.0362023685374
 21
-102.2009536322661
 31
0.0
 11
-138.1098430463867
 21
-101.6040014420741
 31
0.0
 11
-138.105230295433
 21
-100.9892180613407
 31
0.0
 11
-138.0226679582068
 21
-100.396953292003
 31
0.0
 11
-137.8675737604432
 21
-99.86607960232517
 31
0.0
 11
-137.650127884495
 21
-99.4314385098768
 31
0.0
 11
-137.3846010950397
 21
-99.12155819194966
 31
0.0
 11
-137.0884211592503
 21
-98.95677500817249
 31
0.0
  0
ENDBLK
  5
50
330
4E
100
AcDbEntity
  8
0
100
AcDbBlockEnd
  0
BLOCK
  5
53
330
51
100
AcDbEntity
  8
0
100
AcDbBlockBegin
  2
Drfsicht1
 70
     0
 10
-153.938421
 20
-101.1573215
 30
0.0
  3
Drfsicht1
  1

  0
INSERT
  5
52
330
51
100
AcDbEntity
  8
0
100
AcDbBlockReference
  2
MSBV_2_5_NS_35_YE-select__2
 10
-175.2884211592465
 20
-103.7323214523191
 30
0.0
  0
MTEXT
  5
183
330
51
100
AcDbEntity
  8
1
 62
     6
100
AcDbMText
 10
-159.5273753225169
 20
-106.2323214523191
 30
0.0
 40
2.5
 41
0.0
 71
     2
 72
     1
  1
 
  7
CONVERTER_11
 73
     1
 44
1.32052821128451
  0
DIMENSION
  5
18F
330
51
100
AcDbEntity
  8
1
100
AcDbDimension
  2
*D17
 10
-180.2884211592465
 20
-98.58232145231845
 30
0.0
 11
-182.0009211592465
 21
-107.0278961747603
 31
0.0
 70
    32
  1
<>
 71
     5
 42
-1.0
 53
90.0
  3
ME10_DIM_10
100
AcDbAlignedDimension
 13
-175.2884211592465
 23
-103.7323214523191
 33
0.0
 14
-175.2884211592465
 24
-98.5823214523185
 34
0.0
 50
90.0
100
AcDbRotatedDimension
  0
ENDBLK
  5
54
330
51
100
AcDbEntity
  8
0
100
AcDbBlockEnd
  0
BLOCK
  5
56
330
55
100
AcDbEntity
  8
0
100
AcDbBlockBegin
  2
MSBV_2_5_NS_35_YE-select__3
 70
     0
 10
-110.4115788407586
 20
-75.74999993593036
 30
0.0
  3
MSBV_2_5_NS_35_YE-select__3
  1

  0
LINE
  5
190
330
55
100
AcDbEntity
  8
0
  6
Continuous
 62
     7
100
AcDbLine
 10
-86.74907884074543
 20
-45.77999993592162
 30
0.0
 11
-86.74907884074551
 21
-46.84999993592123
 31
0.0
  0
LINE
  5
191
330
55
100
AcDbEntity
  8
0
  6
Continuous
 62
     7
100
AcDbLine
 10
-102.7451356668057
 20
-46.03158488315626
 30
0.0
 11
-93.81157884074631
 21
-45.24999993591587
 31
0.0
  0
LINE
  5
192
330
55
100
AcDbEntity
  8
0
  6
Continuous
 62
     7
100
AcDbLine
 10
-93.07407884074922
 20
-45.77999993591952
 30
0.0
 11
-92.80177121961671
 21
-45.77999993591982
 31
0.0
  0
LINE
  5
193
330
55
100
AcDbEntity
  8
0
  6
Continuous
 62
     7
100
AcDbLine
 10
-86.74907884074551
 20
-46.84999993592123
 30
0.0
 11
-93.0740788407499
 21
-46.84999993591954
 31
0.0
  0
LINE
  5
194
330
55
100
AcDbEntity
  8
0
  6
Continuous
 62
     7
100
AcDbLine
 10
-93.0740788407499
 20
-46.84999993591954
 30
0.0
 11
-93.07407884074922
 21
-45.77999993591952
 31
0.0
  0
LINE
  5
195
330
55
100
AcDbEntity
  8
0
  6
Continuous
 62
     7
100
AcDbLine
 10
-86.71539081921051
 20
-45.24999993591852
 30
0.0
 11
-87.02138646187791
 21
-45.77999993592172
 31
0.0
  0
LINE
  5
196
330
55
100
AcDbEntity
  8
0
  6
Continuous
 62
     7
100
AcDbLine
 10
-87.02138646187791
 20
-45.77999993592172
 30
0.0
 11
-86.74907884074543
 21
-45.77999993592162
 31
0.0
  0
LINE
  5
197
330
55
100
AcDbEntity
  8
0
  6
Continuous
 62
     7
100
AcDbLine
 10
-92.80177121961671
 20
-45.77999993591982
 30
0.0
 11
-93.10776686228382
 21
-45.24999993591641
 31
0.0
  0
LINE
  5
198
330
55
100
AcDbEntity
  8
0
  6
Continuous
 62
     7
100
AcDbLine
 10
-77.07802201468161
 20
-46.03158488316322
 30
0.0
 11
-86.01157884074962
 21
-45.24999993591845
 31
0.0
  0
LINE
  5
199
330
55
100
AcDbEntity
  8
0
  6
Continuous
 62
     7
100
AcDbLine
 10
-105.9115788407509
 20
-56.74999993591018
 30
0.0
 11
-105.9115788407492
 21
-51.51602533969819
 31
0.0
  0
LINE
  5
19A
330
55
100
AcDbEntity
  8
0
  6
Continuous
 62
     7
100
AcDbLine
 10
-75.418251711718
 20
-65.44411421974894
 30
0.0
 11
-74.26449311137043
 21
-69.74999993592695
 31
0.0
  0
LINE
  5
19B
330
55
100
AcDbEntity
  8
0
  6
Continuous
 62
     7
100
AcDbLine
 10
-72.03008526287391
 20
-64.50801934490309
 30
0.0
 11
-71.21157884075362
 21
-69.14999993592849
 31
0.0
  0
LINE
  5
19C
330
55
100
AcDbEntity
  8
0
  6
Continuous
 62
     7
100
AcDbLine
 10
-74.26449311137043
 20
-69.74999993592695
 30
0.0
 11
-107.4115788407554
 21
-69.74999993590956
 31
0.0
  0
LINE
  5
19D
330
55
100
AcDbEntity
  8
0
  6
Continuous
 62
     7
100
AcDbLine
 10
-73.9115788407509
 20
-56.74999993593193
 30
0.0
 11
-73.9115788407492
 21
-51.51602533968826
 31
0.0
  0
LINE
  5
19E
330
55
100
AcDbEntity
  8
0
  6
Continuous
 62
     7
100
AcDbLine
 10
-73.9115788407509
 20
-56.74999993593193
 30
0.0
 11
-69.95867051421283
 21
-64.50801934490363
 31
0.0
  0
LINE
  5
19F
330
55
100
AcDbEntity
  8
0
  6
Continuous
 62
     7
100
AcDbLine
 10
-67.7115788407556
 20
-75.74999993593036
 30
0.0
 11
-72.05261932216791
 21
-75.74999993592809
 31
0.0
  0
LINE
  5
1A0
330
55
100
AcDbEntity
  8
0
  6
Continuous
 62
     7
100
AcDbLine
 10
-69.95867051421283
 20
-64.50801934490363
 30
0.0
 11
-72.03008526287391
 21
-64.50801934490309
 31
0.0
  0
LINE
  5
1A1
330
55
100
AcDbEntity
  8
0
  6
Continuous
 62
     7
100
AcDbLine
 10
-71.21157884075362
 20
-69.14999993592849
 30
0.0
 11
-71.21157884075402
 21
-71.74999993592417
 31
0.0
  0
LINE
  5
1A2
330
55
100
AcDbEntity
  8
0
  6
Continuous
 62
     7
100
AcDbLine
 10
-71.21157884075402
 20
-71.74999993592417
 30
0.0
 11
-68.61157884075402
 21
-71.74999993592985
 31
0.0
  0
LINE
  5
1A3
330
55
100
AcDbEntity
  8
0
  6
Continuous
 62
     7
100
AcDbLine
 10
-67.71157884075402
 20
-72.64999993593045
 30
0.0
 11
-67.7115788407556
 21
-75.74999993593036
 31
0.0
  0
LINE
  5
1A4
330
55
100
AcDbEntity
  8
0
  6
Continuous
 62
     7
100
AcDbLine
 10
-73.7115788407535
 20
-71.64999993592716
 30
0.0
 11
-73.71157884075322
 21
-71.1179491283583
 31
0.0
  0
LINE
  5
1A5
330
55
100
AcDbEntity
  8
0
  6
Continuous
 62
     7
100
AcDbLine
 10
-72.71157884075592
 20
-70.84999993592848
 30
0.0
 11
-72.71157884075532
 21
-69.7499999359278
 31
0.0
  0
LINE
  5
1A6
330
55
100
AcDbEntity
  8
0
  6
Continuous
 62
     7
100
AcDbLine
 10
-72.71157884075532
 20
-69.7499999359278
 30
0.0
 11
-73.96936297228481
 21
-65.05588565209598
 31
0.0
  0
LINE
  5
1A7
330
55
100
AcDbEntity
  8
0
  6
Continuous
 62
     7
100
AcDbLine
 10
-73.9115788407492
 20
-51.51602533968826
 30
0.0
 11
-77.07802201468161
 21
-46.03158488316322
 31
0.0
  0
LINE
  5
1A8
330
55
100
AcDbEntity
  8
0
  6
Continuous
 62
     7
100
AcDbLine
 10
-73.71157884075322
 20
-71.1179491283583
 30
0.0
 11
-72.71157884075592
 21
-70.84999993592848
 31
0.0
  0
LINE
  5
1A9
330
55
100
AcDbEntity
  8
0
  6
Continuous
 62
     7
100
AcDbLine
 10
-107.2238780813429
 20
-74.14999993591823
 30
0.0
 11
-107.7437495953137
 21
-75.74999993591024
 31
0.0
  0
LINE
  5
1AA
330
55
100
AcDbEntity
  8
0
  6
Continuous
 62
     7
100
AcDbLine
 10
-110.4115788407586
 20
-75.74999993590882
 30
0.0
 11
-110.4115788407554
 21
-69.74999993591757
 31
0.0
  0
LINE
  5
1AB
330
55
100
AcDbEntity
  8
0
  6
Continuous
 62
     7
100
AcDbLine
 10
-107.7437495953137
 20
-75.74999993591024
 30
0.0
 11
-110.4115788407586
 21
-75.74999993590882
 31
0.0
  0
LINE
  5
1AC
330
55
100
AcDbEntity
  8
0
  6
Continuous
 62
     7
100
AcDbLine
 10
-107.4115788407554
 20
-69.74999993590956
 30
0.0
 11
-107.411578840756
 21
-70.84999993590947
 31
0.0
  0
LINE
  5
1AD
330
55
100
AcDbEntity
  8
0
  6
Continuous
 62
     7
100
AcDbLine
 10
-107.411578840756
 20
-70.84999993590947
 30
0.0
 11
-106.4115788407561
 21
-71.02632691661844
 31
0.0
  0
LINE
  5
1AE
330
55
100
AcDbEntity
  8
0
  6
Continuous
 62
     7
100
AcDbLine
 10
-106.4115788407561
 20
-71.02632691661844
 30
0.0
 11
-106.4115788407564
 21
-71.64999993591005
 31
0.0
  0
LINE
  5
1AF
330
55
100
AcDbEntity
  8
0
  6
Continuous
 62
     7
100
AcDbLine
 10
-106.4115788407564
 20
-71.64999993591005
 30
0.0
 11
-107.2238780813429
 21
-74.14999993591823
 31
0.0
  0
LINE
  5
1B0
330
55
100
AcDbEntity
  8
0
  6
Continuous
 62
     7
100
AcDbLine
 10
-107.2238780813429
 20
-74.14999993591823
 30
0.0
 11
-107.8712376563216
 21
-74.14999993591812
 31
0.0
  0
LINE
  5
1B1
330
55
100
AcDbEntity
  8
0
  6
Continuous
 62
     7
100
AcDbLine
 10
-110.4115788407554
 20
-69.74999993591757
 30
0.0
 11
-110.4115788407532
 21
-65.58174721067866
 31
0.0
  0
LINE
  5
1B2
330
55
100
AcDbEntity
  8
0
  6
Continuous
 62
     7
100
AcDbLine
 10
-102.7451356668057
 20
-46.03158488315626
 30
0.0
 11
-105.9115788407492
 21
-51.51602533969819
 31
0.0
  0
LINE
  5
1B3
330
55
100
AcDbEntity
  8
0
  6
Continuous
 62
     7
100
AcDbLine
 10
-107.8712376563216
 20
-74.14999993591812
 30
0.0
 11
-110.4115788407554
 21
-69.74999993591757
 31
0.0
  0
LINE
  5
1B4
330
55
100
AcDbEntity
  8
0
  6
Continuous
 62
     7
100
AcDbLine
 10
-86.01157884074962
 20
-45.24999993591845
 30
0.0
 11
-86.71539081921051
 21
-45.24999993591852
 31
0.0
  0
LINE
  5
1B5
330
55
100
AcDbEntity
  8
0
  6
Continuous
 62
     7
100
AcDbLine
 10
-93.10776686228382
 20
-45.24999993591641
 30
0.0
 11
-93.81157884074631
 21
-45.24999993591587
 31
0.0
  0
LINE
  5
1B6
330
55
100
AcDbEntity
  8
0
  6
Continuous
 62
     7
100
AcDbLine
 10
-110.4115788407532
 20
-65.58174721067866
 30
0.0
 11
-105.9115788407509
 21
-56.74999993591018
 31
0.0
  0
ARC
  5
1B7
330
55
100
AcDbEntity
  8
0
  6
Continuous
 62
     7
100
AcDbCircle
 10
-74.69380734200112
 20
-65.24999993592243
 30
0.0
 40
0.749999999999411
100
AcDbArc
 50
14.9999999999773
 51
194.9999999999702
  0
ARC
  5
1B8
330
55
100
AcDbEntity
  8
0
  6
Continuous
 62
     7
100
AcDbCircle
 10
-68.61157884075351
 20
-72.64999993592994
 30
0.0
 40
0.8999999999994941
100
AcDbArc
 50
359.9999999999674
 51
90.00000000003257
  0
ARC
  5
1B9
330
55
100
AcDbEntity
  8
0
  6
Continuous
 62
     7
100
AcDbCircle
 10
-64.31761041202151
 20
-70.23459993593212
 30
0.0
 40
9.499999999999968
100
AcDbArc
 50
188.5683696307479
 51
215.4905322847211
  0
ENDBLK
  5
57
330
55
100
AcDbEntity
  8
0
100
AcDbBlockEnd
  0
BLOCK
  5
5A
330
58
100
AcDbEntity
  8
0
100
AcDbBlockBegin
  2
Rckans1
 70
     0
 10
-89.06157899999991
 20
-60.50000000000003
 30
0.0
  3
Rckans1
  1

  0
INSERT
  5
59
330
58
100
AcDbEntity
  8
0
100
AcDbBlockReference
  2
MSBV_2_5_NS_35_YE-select__3
 10
-110.4115788407586
 20
-75.74999993593036
 30
0.0
  0
MTEXT
  5
1BA
330
58
100
AcDbEntity
  8
1
 62
     6
100
AcDbMText
 10
-89.06157884075598
 20
-78.24999993593036
 30
0.0
 40
2.5
 41
0.0
 71
     2
 72
     1
  1
 
  7
CONVERTER_11
 73
     1
 44
1.32052821128451
  0
ENDBLK
  5
5B
330
58
100
AcDbEntity
  8
0
100
AcDbBlockEnd
  0
BLOCK
  5
5D
330
5C
100
AcDbEntity
  8
0
100
AcDbBlockBegin
  2
MSBV_2_5_NS_35_YE-select__4
 70
     0
 10
-124.5750000476816
 20
-75.74999993595145
 30
0.0
  3
MSBV_2_5_NS_35_YE-select__4
  1

  0
LINE
  5
1BB
330
5C
100
AcDbEntity
  8
0
  6
Continuous
 62
     7
100
AcDbLine
 10
-123.2750000476819
 20
-53.2897026081228
 30
0.0
 11
-123.2750000476038
 21
-52.89144147505451
 31
0.0
  0
LINE
  5
1BC
330
5C
100
AcDbEntity
  8
0
  6
Continuous
 62
     7
100
AcDbLine
 10
-124.5750000476815
 20
-45.24999993593954
 30
0.0
 11
-123.250000047684
 21
-45.24999993593981
 31
0.0
  0
LINE
  5
1BD
330
5C
100
AcDbEntity
  8
0
  6
Continuous
 62
     7
100
AcDbLine
 10
-123.9250000476815
 20
-45.95134198936189
 30
0.0
 11
-123.9250000476815
 21
-46.03158488318442
 31
0.0
  0
LINE
  5
1BE
330
5C
100
AcDbEntity
  8
0
  6
Continuous
 62
     7
100
AcDbLine
 10
-123.9250000476815
 20
-48.75573380631099
 30
0.0
 11
-123.9250000476815
 21
-46.03158488318442
 31
0.0
  0
LINE
  5
1BF
330
5C
100
AcDbEntity
  8
0
  6
Continuous
 62
     7
100
AcDbLine
 10
-124.5750000476816
 20
-46.03158488318429
 30
0.0
 11
-123.9250000476815
 21
-46.03158488318442
 31
0.0
  0
LINE
  5
1C0
330
5C
100
AcDbEntity
  8
0
  6
Continuous
 62
     7
100
AcDbLine
 10
-124.2005464918251
 20
-51.51602533970899
 30
0.0
 11
-124.5750000476815
 21
-51.51602533970933
 31
0.0
  0
LINE
  5
1C1
330
5C
100
AcDbEntity
  8
0
  6
Continuous
 62
     7
100
AcDbLine
 10
-124.2250000476803
 20
-51.91062064582668
 30
0.0
 11
-124.2250000476803
 21
-52.60344096885751
 31
0.0
  0
LINE
  5
1C2
330
5C
100
AcDbEntity
  8
0
  6
Continuous
 62
     7
100
AcDbLine
 10
-123.250000047684
 20
-45.24999993593981
 30
0.0
 11
-123.2097143510987
 21
-45.57810060501299
 31
0.0
  0
LINE
  5
1C3
330
5C
100
AcDbEntity
  8
0
  6
Continuous
 62
     7
100
AcDbLine
 10
-119.4250000476811
 20
-64.50801934492404
 30
0.0
 11
-124.5750000476815
 21
-64.50801934492415
 31
0.0
  0
LINE
  5
1C4
330
5C
100
AcDbEntity
  8
0
  6
Continuous
 62
     7
100
AcDbLine
 10
-124.5750000476815
 20
-72.64999993595154
 30
0.0
 11
-124.5750000476815
 21
-75.74999993595145
 31
0.0
  0
LINE
  5
1C5
330
5C
100
AcDbEntity
  8
0
  6
Continuous
 62
     7
100
AcDbLine
 10
-124.5750000476815
 20
-56.749999935953
 30
0.0
 11
-124.5750000476815
 21
-64.50801934492415
 31
0.0
  0
LINE
  5
1C6
330
5C
100
AcDbEntity
  8
0
  6
Continuous
 62
     7
100
AcDbLine
 10
-124.5750000476815
 20
-64.50801934492415
 30
0.0
 11
-124.5750000476815
 21
-69.14999993594955
 31
0.0
  0
LINE
  5
1C7
330
5C
100
AcDbEntity
  8
0
  6
Continuous
 62
     7
100
AcDbLine
 10
-119.4250000476811
 20
-64.50801934492404
 30
0.0
 11
-119.4250000476812
 21
-56.7499999359529
 31
0.0
  0
LINE
  5
1C8
330
5C
100
AcDbEntity
  8
0
  6
Continuous
 62
     7
100
AcDbLine
 10
-123.4303003636109
 20
-52.79723871013425
 30
0.0
 11
-120.2196997317526
 21
-52.79723871013428
 31
0.0
  0
LINE
  5
1C9
330
5C
100
AcDbEntity
  8
0
  6
Continuous
 62
     7
100
AcDbLine
 10
-123.2750000476819
 20
-54.07568415529389
 30
0.0
 11
-123.2750000476819
 21
-53.2897026081228
 31
0.0
  0
LINE
  5
1CA
330
5C
100
AcDbEntity
  8
0
  6
Continuous
 62
     7
100
AcDbLine
 10
-123.2750000476766
 20
-54.81175857887135
 30
0.0
 11
-123.2750000476819
 21
-54.07568415529389
 31
0.0
  0
LINE
  5
1CB
330
5C
100
AcDbEntity
  8
0
  6
Continuous
 62
     7
100
AcDbLine
 10
-120.375000047682
 20
-54.07568415529391
 30
0.0
 11
-123.2750000476819
 21
-54.07568415529389
 31
0.0
  0
LINE
  5
1CC
330
5C
100
AcDbEntity
  8
0
  6
Continuous
 62
     7
100
AcDbLine
 10
-123.2750000476819
 20
-53.2897026081228
 30
0.0
 11
-120.375000047682
 21
-53.28970260812281
 31
0.0
  0
LINE
  5
1CD
330
5C
100
AcDbEntity
  8
0
  6
Continuous
 62
     7
100
AcDbLine
 10
-124.5750000476815
 20
-56.749999935953
 30
0.0
 11
-119.4250000476812
 21
-56.7499999359529
 31
0.0
  0
LINE
  5
1CE
330
5C
100
AcDbEntity
  8
0
  6
Continuous
 62
     7
100
AcDbLine
 10
-124.5750000476815
 20
-71.74999993595091
 30
0.0
 11
-124.5750000476815
 21
-72.64999993595154
 31
0.0
  0
LINE
  5
1CF
330
5C
100
AcDbEntity
  8
0
  6
Continuous
 62
     7
100
AcDbLine
 10
-124.5750000476815
 20
-69.14999993594955
 30
0.0
 11
-124.5750000476815
 21
-71.74999993595091
 31
0.0
  0
LINE
  5
1D0
330
5C
100
AcDbEntity
  8
0
  6
Continuous
 62
     7
100
AcDbLine
 10
-119.4250000476808
 20
-75.7499999359514
 30
0.0
 11
-124.5750000476815
 21
-75.74999993595145
 31
0.0
  0
LINE
  5
1D1
330
5C
100
AcDbEntity
  8
0
  6
Continuous
 62
     7
100
AcDbLine
 10
-119.4250000476808
 20
-75.7499999359514
 30
0.0
 11
-119.4250000476809
 21
-72.64999993595148
 31
0.0
  0
LINE
  5
1D2
330
5C
100
AcDbEntity
  8
0
  6
Continuous
 62
     7
100
AcDbLine
 10
-119.4250000476813
 20
-71.74999993595085
 30
0.0
 11
-119.425000047681
 21
-69.14999993594947
 31
0.0
  0
LINE
  5
1D3
330
5C
100
AcDbEntity
  8
0
  6
Continuous
 62
     2
100
AcDbLine
 10
-119.4250000476809
 20
-72.64999993595148
 30
0.0
 11
-124.5750000476815
 21
-72.64999993595154
 31
0.0
  0
LINE
  5
1D4
330
5C
100
AcDbEntity
  8
0
  6
Continuous
 62
     7
100
AcDbLine
 10
-123.5750000476793
 20
-71.74999993595088
 30
0.0
 11
-119.4250000476813
 21
-71.74999993595085
 31
0.0
  0
LINE
  5
1D5
330
5C
100
AcDbEntity
  8
0
  6
Continuous
 62
     7
100
AcDbLine
 10
-119.4250000476813
 20
-71.74999993595085
 30
0.0
 11
-119.4250000476809
 21
-72.64999993595148
 31
0.0
  0
LINE
  5
1D6
330
5C
100
AcDbEntity
  8
0
  6
Continuous
 62
     7
100
AcDbLine
 10
-124.5750000476815
 20
-71.74999993595091
 30
0.0
 11
-123.5750000476793
 21
-71.74999993595088
 31
0.0
  0
LINE
  5
1D7
330
5C
100
AcDbEntity
  8
0
  6
Continuous
 62
     7
100
AcDbLine
 10
-119.425000047681
 20
-69.14999993594947
 30
0.0
 11
-124.5750000476815
 21
-69.14999993594955
 31
0.0
  0
LINE
  5
1D8
330
5C
100
AcDbEntity
  8
0
  6
Continuous
 62
     7
100
AcDbLine
 10
-120.7902857442669
 20
-45.57810060501296
 30
0.0
 11
-120.7500000476839
 21
-45.24999993593981
 31
0.0
  0
LINE
  5
1D9
330
5C
100
AcDbEntity
  8
0
  6
Continuous
 62
     7
100
AcDbLine
 10
-119.4250000476815
 20
-45.24999993593954
 30
0.0
 11
-119.4250000476816
 21
-46.03158488318429
 31
0.0
  0
LINE
  5
1DA
330
5C
100
AcDbEntity
  8
0
  6
Continuous
 62
     7
100
AcDbLine
 10
-119.4250000476814
 20
-50.94594641551606
 30
0.0
 11
-119.4250000476816
 21
-46.03158488318429
 31
0.0
  0
LINE
  5
1DB
330
5C
100
AcDbEntity
  8
0
  6
Continuous
 62
     7
100
AcDbLine
 10
-120.7500000476839
 20
-45.24999993593981
 30
0.0
 11
-119.4250000476815
 21
-45.24999993593954
 31
0.0
  0
LINE
  5
1DC
330
5C
100
AcDbEntity
  8
0
  6
Continuous
 62
     7
100
AcDbLine
 10
-119.6432576247541
 20
-52.63594641551703
 30
0.0
 11
-119.6432576247532
 21
-50.94594641551709
 31
0.0
  0
LINE
  5
1DD
330
5C
100
AcDbEntity
  8
0
  6
Continuous
 62
     7
100
AcDbLine
 10
-120.3750000476818
 20
-52.89144147500851
 30
0.0
 11
-120.375000047682
 21
-53.28970260812281
 31
0.0
  0
LINE
  5
1DE
330
5C
100
AcDbEntity
  8
0
  6
Continuous
 62
     7
100
AcDbLine
 10
-120.375000047682
 20
-53.28970260812281
 30
0.0
 11
-120.375000047682
 21
-54.07568415529391
 31
0.0
  0
LINE
  5
1DF
330
5C
100
AcDbEntity
  8
0
  6
Continuous
 62
     7
100
AcDbLine
 10
-120.1250000476815
 20
-46.03158488318431
 30
0.0
 11
-120.1250000476815
 21
-48.75573380631067
 31
0.0
  0
LINE
  5
1E0
330
5C
100
AcDbEntity
  8
0
  6
Continuous
 62
     2
100
AcDbLine
 10
-119.4250000476815
 20
-52.635946415517
 30
0.0
 11
-119.6432576247541
 21
-52.63594641551703
 31
0.0
  0
LINE
  5
1E1
330
5C
100
AcDbEntity
  8
0
  6
Continuous
 62
     7
100
AcDbLine
 10
-119.4250000476814
 20
-50.94594641551606
 30
0.0
 11
-119.4250000476815
 21
-52.635946415517
 31
0.0
  0
LINE
  5
1E2
330
5C
100
AcDbEntity
  8
0
  6
Continuous
 62
     7
100
AcDbLine
 10
-119.4250000476816
 20
-46.03158488318429
 30
0.0
 11
-120.1250000476815
 21
-46.03158488318431
 31
0.0
  0
LINE
  5
1E3
330
5C
100
AcDbEntity
  8
0
  6
Continuous
 62
     7
100
AcDbLine
 10
-119.6432576247532
 20
-50.94594641551709
 30
0.0
 11
-119.4250000476814
 21
-50.94594641551606
 31
0.0
  0
LINE
  5
1E4
330
5C
100
AcDbEntity
  8
0
  6
Continuous
 62
     7
100
AcDbLine
 10
-120.375000047682
 20
-54.07568415529391
 30
0.0
 11
-120.3750000476767
 21
-54.81175857886437
 31
0.0
  0
LINE
  5
1E5
330
5C
100
AcDbEntity
  8
0
  6
Continuous
 62
     7
100
AcDbLine
 10
-119.6432576247512
 20
-53.7581415072344
 30
0.0
 11
-119.4250000476813
 21
-53.7581415072379
 31
0.0
  0
LINE
  5
1E6
330
5C
100
AcDbEntity
  8
0
  6
Continuous
 62
     7
100
AcDbLine
 10
-119.4250000476812
 20
-56.7499999359529
 30
0.0
 11
-119.4250000476813
 21
-53.7581415072379
 31
0.0
  0
LINE
  5
1E7
330
5C
100
AcDbEntity
  8
0
  6
Continuous
 62
     7
100
AcDbLine
 10
-124.5750000476815
 20
-51.51602533970933
 30
0.0
 11
-124.5750000476816
 21
-46.03158488318429
 31
0.0
  0
LINE
  5
1E8
330
5C
100
AcDbEntity
  8
0
  6
Continuous
 62
     7
100
AcDbLine
 10
-124.5750000476816
 20
-46.03158488318429
 30
0.0
 11
-124.5750000476815
 21
-45.24999993593954
 31
0.0
  0
LINE
  5
1E9
330
5C
100
AcDbEntity
  8
0
  6
Continuous
 62
     7
100
AcDbLine
 10
-124.5750000476815
 20
-56.749999935953
 30
0.0
 11
-124.5750000476815
 21
-51.51602533970933
 31
0.0
  0
LINE
  5
1EA
330
5C
100
AcDbEntity
  8
0
  6
Continuous
 62
     7
100
AcDbLine
 10
-119.4250000476811
 20
-64.50801934492404
 30
0.0
 11
-119.425000047681
 21
-69.14999993594947
 31
0.0
  0
LINE
  5
1EB
330
5C
100
AcDbEntity
  8
0
  6
Continuous
 62
     7
100
AcDbLine
 10
-119.4250000476813
 20
-53.7581415072379
 30
0.0
 11
-119.4250000476815
 21
-52.635946415517
 31
0.0
  0
LINE
  5
1EC
330
5C
100
AcDbEntity
  8
0
  6
Continuous
 62
     7
100
AcDbLine
 10
-123.250000047684
 20
-45.24999993593981
 30
0.0
 11
-120.7500000476839
 21
-45.24999993593981
 31
0.0
  0
LINE
  5
1ED
330
5C
100
AcDbEntity
  8
0
  6
Continuous
 62
     7
100
AcDbLine
 10
-123.2097143510987
 20
-45.57810060501299
 30
0.0
 11
-120.7902857442669
 21
-45.57810060501296
 31
0.0
  0
LINE
  5
1EE
330
5C
100
AcDbEntity
  8
0
  6
Continuous
 62
     7
100
AcDbLine
 10
-123.2130529885277
 20
-48.75573380631188
 30
0.0
 11
-123.9250000476815
 21
-48.75573380631099
 31
0.0
  0
LINE
  5
1EF
330
5C
100
AcDbEntity
  8
0
  6
Continuous
 62
     7
100
AcDbLine
 10
-120.1250000476815
 20
-48.75573380631067
 30
0.0
 11
-120.7869471068383
 21
-48.75573380631221
 31
0.0
  0
LINE
  5
1F0
330
5C
100
AcDbEntity
  8
0
  6
Continuous
 62
     7
100
AcDbLine
 10
-120.7869471068383
 20
-48.75573380631221
 30
0.0
 11
-123.2130529885277
 21
-48.75573380631188
 31
0.0
  0
LINE
  5
1F1
330
5C
100
AcDbEntity
  8
0
  6
Continuous
 62
     7
100
AcDbLine
 10
-120.1250000476815
 20
-45.95134198936216
 30
0.0
 11
-123.9250000476815
 21
-45.95134198936189
 31
0.0
  0
LINE
  5
1F2
330
5C
100
AcDbEntity
  8
0
  6
Continuous
 62
     7
100
AcDbLine
 10
-123.20706895791
 20
-48.41441554703489
 30
0.0
 11
-120.7929311374556
 21
-48.41441554703496
 31
0.0
  0
LINE
  5
1F3
330
5C
100
AcDbEntity
  8
0
  6
Continuous
 62
     7
100
AcDbLine
 10
-120.1250000476815
 20
-46.03158488318431
 30
0.0
 11
-120.1250000476815
 21
-45.95134198936216
 31
0.0
  0
LINE
  5
1F4
330
5C
100
AcDbEntity
  8
0
  6
Continuous
 62
     7
100
AcDbLine
 10
-120.7929311374556
 20
-48.41441554703496
 30
0.0
 11
-120.7869471068383
 21
-48.75573380631221
 31
0.0
  0
LINE
  5
1F5
330
5C
100
AcDbEntity
  8
0
  6
Continuous
 62
     7
100
AcDbLine
 10
-123.2130529885277
 20
-48.75573380631188
 30
0.0
 11
-123.20706895791
 21
-48.41441554703489
 31
0.0
  0
SPLINE
  5
1F6
330
5C
100
AcDbEntity
  8
0
  6
Continuous
 62
     7
100
AcDbSpline
210
0.0
220
0.0
230
1.0
 70
     8
 71
     3
 72
    11
 73
     7
 74
     5
 42
0.000000001
 43
0.0000000001
 44
0.00000001
 40
0.0
 40
0.0
 40
0.0
 40
0.0
 40
0.0686387849421747
 40
0.1382181649639217
 40
0.2067411574706862
 40
0.2764261777483548
 40
0.2764261777483548
 40
0.2764261777483548
 40
0.2764261777483548
 10
-123.4303003636109
 20
-52.79723871013425
 30
0.0
 10
-123.4386030180827
 20
-52.77591872406781
 30
0.0
 10
-123.455322088837
 20
-52.73298658695689
 30
0.0
 10
-123.4803025065592
 20
-52.66875980401035
 30
0.0
 10
-123.5053919849544
 20
-52.60420124756526
 30
0.0
 10
-123.5220635663705
 20
-52.5612542770563
 30
0.0
 10
-123.5304694358734
 20
-52.53960024392993
 30
0.0
 11
-123.4303003636109
 21
-52.79723871013425
 31
0.0
 11
-123.4552038223672
 21
-52.73327699861437
 31
0.0
 11
-123.4804272305672
 21
-52.66843048904403
 31
0.0
 11
-123.5052476353166
 21
-52.6045607152024
 31
0.0
 11
-123.5304694358734
 21
-52.53960024392993
 31
0.0
  0
SPLINE
  5
1F7
330
5C
100
AcDbEntity
  8
0
  6
Continuous
 62
     7
100
AcDbSpline
210
0.0
220
0.0
230
1.0
 70
     8
 71
     3
 72
    11
 73
     7
 74
     5
 42
0.000000001
 43
0.0000000001
 44
0.00000001
 40
0.0
 40
0.0
 40
0.0
 40
0.0
 40
0.0455365153063601
 40
0.0903690183566317
 40
0.1363748987853599
 40
0.1816417058823922
 40
0.1816417058823922
 40
0.1816417058823922
 40
0.1816417058823922
 10
-123.4303003636109
 20
-52.79723871013425
 30
0.0
 10
-123.4173988944171
 20
-52.80523561768207
 30
0.0
 10
-123.3917954099253
 20
-52.8211057847786
 30
0.0
 10
-123.3529917890973
 20
-52.84478618373784
 30
0.0
 10
-123.3141492747404
 20
-52.86822939980769
 30
0.0
 10
-123.2879791557138
 20
-52.88374600240952
 30
0.0
 10
-123.2750000476038
 20
-52.89144147505451
 30
0.0
 11
-123.4303003636109
 21
-52.79723871013425
 31
0.0
 11
-123.3915680767015
 21
-52.82118415185146
 31
0.0
 11
-123.3533068639484
 21
-52.84455149944218
 31
0.0
 11
-123.3139073188431
 21
-52.86830474943472
 31
0.0
 11
-123.2750000476038
 21
-52.89144147505451
 31
0.0
  0
SPLINE
  5
1F8
330
5C
100
AcDbEntity
  8
0
  6
Continuous
 62
     7
100
AcDbSpline
210
0.0
220
0.0
230
1.0
 70
     8
 71
     3
 72
     9
 73
     5
 74
     3
 42
0.000000001
 43
0.0000000001
 44
0.00000001
 40
0.0
 40
0.0
 40
0.0
 40
0.0
 40
0.1976451942163903
 40
0.395542031653321
 40
0.395542031653321
 40
0.395542031653321
 40
0.395542031653321
 10
-124.2005464918251
 20
-51.51602533970899
 30
0.0
 10
-124.207674876613
 20
-51.58155997738035
 30
0.0
 10
-124.2219407021739
 20
-51.71271269342007
 30
0.0
 10
-124.2239798400709
 20
-51.84462335426317
 30
0.0
 10
-124.2250000476803
 20
-51.91062064582668
 30
0.0
 11
-124.2005464918251
 21
-51.51602533970899
 31
0.0
 11
-124.2188788524055
 21
-51.71281849882487
 31
0.0
 11
-124.2250000476803
 21
-51.91062064582668
 31
0.0
  0
SPLINE
  5
1F9
330
5C
100
AcDbEntity
  8
0
  6
Continuous
 62
     7
100
AcDbSpline
210
0.0
220
0.0
230
1.0
 70
     8
 71
     3
 72
     9
 73
     5
 74
     3
 42
0.000000001
 43
0.0000000001
 44
0.00000001
 40
0.0
 40
0.0
 40
0.0
 40
0.0
 40
0.5364206210972648
 40
1.055699500436179
 40
1.055699500436179
 40
1.055699500436179
 40
1.055699500436179
 10
-123.5304694358734
 20
-52.53960024392993
 30
0.0
 10
-123.6592784538659
 20
-52.66632747344669
 30
0.0
 10
-123.9127802810932
 20
-52.91573227656905
 30
0.0
 10
-124.0537190549784
 20
-53.24207806713162
 30
0.0
 10
-124.1230441988353
 20
-53.40260147509784
 30
0.0
 11
-123.5304694358734
 21
-52.53960024392993
 31
0.0
 11
-123.8878344378885
 21
-52.93964691553053
 31
0.0
 11
-124.1230441988353
 21
-53.40260147509784
 31
0.0
  0
SPLINE
  5
1FA
330
5C
100
AcDbEntity
  8
0
  6
Continuous
 62
     7
100
AcDbSpline
210
0.0
220
0.0
230
1.0
 70
     8
 71
     3
 72
    17
 73
    13
 74
    11
 42
0.000000001
 43
0.0000000001
 44
0.00000001
 40
0.0
 40
0.0
 40
0.0
 40
0.0
 40
0.7475067979776306
 40
1.481920566463251
 40
2.193346105741238
 40
2.877886269602336
 40
3.539355362047606
 40
4.188877191125417
 40
4.841642076821914
 40
5.51171611422351
 40
6.207416508459959
 40
6.929257801639419
 40
6.929257801639419
 40
6.929257801639419
 40
6.929257801639419
 10
-124.2250000476803
 20
-52.60344096885751
 30
0.0
 10
-124.2081464981726
 20
-52.85319529117216
 30
0.0
 10
-124.1747345857963
 20
-53.34832933755159
 30
0.0
 10
-123.9091910060438
 20
-54.04091048896338
 30
0.0
 10
-123.503766603609
 20
-54.63194981369787
 30
0.0
 10
-122.9702017948086
 20
-55.07788897247682
 30
0.0
 10
-122.3492359490138
 20
-55.343330461558
 30
0.0
 10
-121.6866863818454
 20
-55.40486313885063
 30
0.0
 10
-121.0345381900472
 20
-55.25704544420799
 30
0.0
 10
-120.4471425761046
 20
-54.91216310355787
 30
0.0
 10
-119.9534328142854
 20
-54.40456907690697
 30
0.0
 10
-119.7479126837426
 20
-53.97625024301933
 30
0.0
 10
-119.6432576247512
 20
-53.7581415072344
 30
0.0
 11
-124.2250000476803
 21
-52.60344096885751
 31
0.0
 11
-124.1372913366225
 21
-53.34578428659206
 31
0.0
 11
-123.8805788199499
 21
-54.03387023356656
 31
0.0
 11
-123.4736228327814
 21
-54.61740525798457
 31
0.0
 11
-122.9461701218491
 21
-55.05374099533094
 31
0.0
 11
-122.3367704258479
 21
-55.31098285182028
 31
0.0
 11
-121.689965779214
 21
-55.37033230423845
 31
0.0
 11
-121.0530308672767
 21
-55.22744802943576
 31
0.0
 11
-120.4725186603546
 21
-54.89277685420319
 31
0.0
 11
-119.9908601194435
 21
-54.39077676256771
 31
0.0
 11
-119.6432576247512
 21
-53.7581415072344
 31
0.0
  0
SPLINE
  5
1FB
330
5C
100
AcDbEntity
  8
0
  6
Continuous
 62
     7
100
AcDbSpline
210
0.0
220
0.0
230
1.0
 70
     8
 71
     3
 72
    11
 73
     7
 74
     5
 42
0.000000001
 43
0.0000000001
 44
0.00000001
 40
0.0
 40
0.0
 40
0.0
 40
0.0
 40
0.0685590716254962
 40
0.1382181649645585
 40
0.206844490252618
 40
0.2764261777569026
 40
0.2764261777569026
 40
0.2764261777569026
 40
0.2764261777569026
 10
-120.2196997317526
 20
-52.79723871013428
 30
0.0
 10
-120.2114067174579
 20
-52.77594348473598
 30
0.0
 10
-120.1946876425411
 20
-52.73301134924702
 30
0.0
 10
-120.1696947276646
 20
-52.66875246912564
 30
0.0
 10
-120.1445956389571
 20
-52.6041691403948
 30
0.0
 10
-120.127924062041
 20
-52.56122216813759
 30
0.0
 10
-120.1195306594957
 20
-52.53960024391861
 30
0.0
 11
-120.2196997317526
 21
-52.79723871013428
 31
0.0
 11
-120.1948251822073
 21
-52.73335128502329
 31
0.0
 11
-120.169572864796
 21
-52.66843048904352
 31
0.0
 11
-120.1447150454191
 21
-52.60446439381495
 31
0.0
 11
-120.1195306594957
 21
-52.53960024391861
 31
0.0
  0
SPLINE
  5
1FC
330
5C
100
AcDbEntity
  8
0
  6
Continuous
 62
     7
100
AcDbSpline
210
0.0
220
0.0
230
1.0
 70
     8
 71
     3
 72
    11
 73
     7
 74
     5
 42
0.000000001
 43
0.0000000001
 44
0.00000001
 40
0.0
 40
0.0
 40
0.0
 40
0.0
 40
0.0452671895817074
 40
0.091272687480117
 40
0.1361051899419362
 40
0.1816417057918505
 40
0.1816417057918505
 40
0.1816417057918505
 40
0.1816417057918505
 10
-120.3750000476818
 20
-52.89144147500851
 30
0.0
 10
-120.3620208300048
 20
-52.88374593716828
 30
0.0
 10
-120.3358507111946
 20
-52.86822933422765
 30
0.0
 10
-120.2970081975639
 20
-52.8447861173737
 30
0.0
 10
-120.2582046855767
 20
-52.82110578487038
 30
0.0
 10
-120.2326012010995
 20
-52.80523561777897
 30
0.0
 10
-120.2196997317526
 20
-52.79723871013428
 30
0.0
 11
-120.3750000476818
 21
-52.89144147500851
 31
0.0
 11
-120.3360924482895
 21
-52.86830455289065
 31
0.0
 11
-120.2966932313767
 21
-52.84455149941894
 31
0.0
 11
-120.2584320191251
 21
-52.8211841521361
 31
0.0
 11
-120.2196997317526
 21
-52.79723871013428
 31
0.0
  0
SPLINE
  5
1FD
330
5C
100
AcDbEntity
  8
0
  6
Continuous
 62
     7
100
AcDbSpline
210
0.0
220
0.0
230
1.0
 70
     8
 71
     3
 72
    17
 73
    13
 74
    11
 42
0.000000001
 43
0.0000000001
 44
0.00000001
 40
0.0
 40
0.0
 40
0.0
 40
0.0
 40
0.0562247551544511
 40
0.1159817532565414
 40
0.1866430771300543
 40
0.2622973116996273
 40
0.4326023330811246
 40
0.6188609518988104
 40
0.8123728032135424
 40
1.013419777656335
 40
1.076657092769198
 40
1.141844314000417
 40
1.141844314000417
 40
1.141844314000417
 40
1.141844314000417
 10
-119.6432576247541
 20
-52.63594641551703
 30
0.0
 10
-119.642713888589
 20
-52.6546884989324
 30
0.0
 10
-119.6415922356879
 20
-52.69335011001836
 30
0.0
 10
-119.6342815507318
 20
-52.75519458449894
 30
0.0
 10
-119.6236399030524
 20
-52.82305788715956
 30
0.0
 10
-119.6037418821425
 20
-52.92672496853103
 30
0.0
 10
-119.572143780918
 20
-53.06730536668191
 30
0.0
 10
-119.5304249161834
 20
-53.24585017811745
 30
0.0
 10
-119.4892651833617
 20
-53.43504865538718
 30
0.0
 10
-119.4622879798597
 20
-53.58530611347469
 30
0.0
 10
-119.4467362949922
 20
-53.69403320803143
 30
0.0
 10
-119.4417938228391
 20
-53.73655685738449
 30
0.0
 10
-119.4392850724959
 20
-53.75814150723933
 30
0.0
 11
-119.6432576247541
 21
-52.63594641551703
 31
0.0
 11
-119.6408223907678
 21
-52.69211841113287
 31
0.0
 11
-119.6343671966737
 21
-52.75152572700982
 31
0.0
 11
-119.6235153675007
 21
-52.82134879202101
 31
0.0
 11
-119.6094514032503
 21
-52.89568430219568
 31
0.0
 11
-119.5730876014025
 21
-53.06206180693917
 31
0.0
 11
-119.531429648595
 21
-53.24360212734288
 31
0.0
 11
-119.4909320467271
 21
-53.43282892442716
 31
0.0
 11
-119.4559605277537
 21
-53.63081094061539
 31
0.0
 11
-119.4470997435739
 21
-53.69342439390861
 31
0.0
 11
-119.4392850724959
 21
-53.75814150723933
 31
0.0
  0
SPLINE
  5
1FE
330
5C
100
AcDbEntity
  8
0
  6
Continuous
 62
     7
100
AcDbSpline
210
0.0
220
0.0
230
1.0
 70
     8
 71
     3
 72
    11
 73
     7
 74
     5
 42
0.000000001
 43
0.0000000001
 44
0.00000001
 40
0.0
 40
0.0
 40
0.0
 40
0.0
 40
0.3462957073437309
 40
0.6975987456068267
 40
1.056072614206717
 40
1.423000135265374
 40
1.423000135265374
 40
1.423000135265374
 40
1.423000135265374
 10
-119.4415720461342
 20
-53.75814150723933
 30
0.0
 10
-119.4635267117964
 20
-53.64443368603182
 30
0.0
 10
-119.5077535153922
 20
-53.41537386656942
 30
0.0
 10
-119.655976313927
 20
-53.09306411769383
 30
0.0
 10
-119.8561415876118
 20
-52.7924536195326
 30
0.0
 10
-120.0310548330072
 20
-52.62453698565369
 30
0.0
 10
-120.1195306594957
 20
-52.53960024391861
 30
0.0
 11
-119.4415720461342
 21
-53.75814150723933
 31
0.0
 11
-119.5206648636003
 21
-53.42099903896359
 31
0.0
 11
-119.6628904136926
 21
-53.09977369917571
 31
0.0
 11
-119.8643522360099
 21
-52.80326627961183
 31
0.0
 11
-120.1195306594957
 21
-52.53960024391861
 31
0.0
  0
SPLINE
  5
1FF
330
5C
100
AcDbEntity
  8
0
  6
Continuous
 62
     7
100
AcDbSpline
210
0.0
220
0.0
230
1.0
 70
     8
 71
     3
 72
    17
 73
    13
 74
    11
 42
0.000000001
 43
0.0000000001
 44
0.00000001
 40
0.0
 40
0.0
 40
0.0
 40
0.0
 40
0.5568203317059744
 40
1.134397399936405
 40
1.731404204369098
 40
2.341830911205443
 40
2.956666203447345
 40
3.565950352556674
 40
4.160920522569743
 40
4.736038774364301
 40
5.29060097568814
 40
5.829415560091084
 40
5.829415560091084
 40
5.829415560091084
 40
5.829415560091084
 10
-119.6432576247532
 20
-50.94594641551709
 30
0.0
 10
-119.743984996674
 20
-50.78872567972897
 30
0.0
 10
-119.9491945926303
 20
-50.46842345826619
 30
0.0
 10
-120.4112259305418
 20
-50.10634984562269
 30
0.0
 10
-120.9528309730734
 20
-49.85073486515384
 30
0.0
 10
-121.5527118643529
 20
-49.72413721635464
 30
0.0
 10
-122.1690579914686
 20
-49.73197692245128
 30
0.0
 10
-122.7636023642229
 20
-49.87440769409736
 30
0.0
 10
-123.2994929138068
 20
-50.14264608367947
 30
0.0
 10
-123.737782976704
 20
-50.52152204177368
 30
0.0
 10
-124.0642199376593
 20
-50.98540982650513
 30
0.0
 10
-124.1555427441917
 20
-51.34085998545267
 30
0.0
 10
-124.2005464918251
 20
-51.51602533970899
 30
0.0
 11
-119.6432576247532
 21
-50.94594641551709
 31
0.0
 11
-119.9689329142849
 21
-50.4942999933311
 31
0.0
 11
-120.416425870444
 21
-50.12913519906279
 31
0.0
 11
-120.9563678677292
 21
-49.87442013078483
 31
0.0
 11
-121.5533200579193
 21
-49.74687073524495
 31
0.0
 11
-122.1681034386511
 21
-49.75486025425759
 31
0.0
 11
-122.7603682079879
 21
-49.89786241712203
 31
0.0
 11
-123.2912418976657
 21
-50.16649344760421
 31
0.0
 11
-123.7258829901151
 21
-50.54312075263897
 31
0.0
 11
-124.0357633080445
 21
-51.00302664274253
 31
0.0
 11
-124.2005464918251
 21
-51.51602533970899
 31
0.0
  0
SPLINE
  5
200
330
5C
100
AcDbEntity
  8
0
  6
Continuous
 62
     7
100
AcDbSpline
210
0.0
220
0.0
230
1.0
 70
     8
 71
     3
 72
    15
 73
    11
 74
     9
 42
0.000000001
 43
0.0000000001
 44
0.00000001
 40
0.0
 40
0.0
 40
0.0
 40
0.0
 40
0.6895654246688815
 40
1.292124880955473
 40
1.818309437962111
 40
2.298066592779306
 40
2.777823747595996
 40
3.304008304601421
 40
3.90656776088642
 40
4.596133185553644
 40
4.596133185553644
 40
4.596133185553644
 40
4.596133185553644
 10
-123.5304694358734
 20
-52.53960024392993
 30
0.0
 10
-123.4170586794515
 20
-52.33893705778782
 30
0.0
 10
-123.2045467662722
 20
-51.96292938467912
 30
0.0
 10
-122.7847359802603
 20
-51.51652552507873
 30
0.0
 10
-122.3225794489685
 20
-51.22901894841642
 30
0.0
 10
-121.8250000476857
 20
-51.12813346409996
 30
0.0
 10
-121.3274206464026
 20
-51.22901894841299
 30
0.0
 10
-120.8652641151103
 20
-51.51652552507231
 30
0.0
 10
-120.4454533290976
 20
-51.96292938467005
 30
0.0
 10
-120.2329414159178
 20
-52.33893705777727
 30
0.0
 10
-120.1195306594957
 20
-52.53960024391861
 30
0.0
 11
-123.5304694358734
 21
-52.53960024392993
 31
0.0
 11
-123.1657973558754
 21
-51.9543526423594
 31
0.0
 11
-122.7489472894288
 21
-51.51925044434314
 31
0.0
 11
-122.2961410454784
 21
-51.25122676024152
 31
0.0
 11
-121.8250000476854
 21
-51.16071107396894
 31
0.0
 11
-121.3538590498924
 21
-51.2512267602384
 31
0.0
 11
-120.9010528059416
 21
-51.51925044433702
 31
0.0
 11
-120.4842027394945
 21
-51.95435264235051
 31
0.0
 11
-120.1195306594957
 21
-52.53960024391861
 31
0.0
  0
ENDBLK
  5
5E
330
5C
100
AcDbEntity
  8
0
100
AcDbBlockEnd
  0
BLOCK
  5
61
330
5F
100
AcDbEntity
  8
0
100
AcDbBlockBegin
  2
SA_Links1
 70
     0
 10
-122.0
 20
-60.50000000000001
 30
0.0
  3
SA_Links1
  1

  0
INSERT
  5
60
330
5F
100
AcDbEntity
  8
0
100
AcDbBlockReference
  2
MSBV_2_5_NS_35_YE-select__4
 10
-124.5750000476816
 20
-75.74999993595145
 30
0.0
  0
MTEXT
  5
201
330
5F
100
AcDbEntity
  8
1
 62
     6
100
AcDbMText
 10
-122.0000000476812
 20
-78.24999993595145
 30
0.0
 40
2.5
 41
0.0
 71
     2
 72
     1
  1
 
  7
CONVERTER_11
 73
     1
 44
1.32052821128451
  0
ENDBLK
  5
62
330
5F
100
AcDbEntity
  8
0
100
AcDbBlockEnd
  0
BLOCK
  5
64
330
63
100
AcDbEntity
  8
0
100
AcDbBlockBegin
  2
MSBV_2_5_NS_35_YE-select__5
 70
     0
 10
-198.3977299523192
 20
-75.74999993594915
 30
0.0
  3
MSBV_2_5_NS_35_YE-select__5
  1

  0
LINE
  5
202
330
63
100
AcDbEntity
  8
0
  6
Continuous
 62
     7
100
AcDbLine
 10
-198.3977299523187
 20
-53.7581415072379
 30
0.0
 11
-198.3977299523185
 21
-52.63594641551009
 31
0.0
  0
LINE
  5
203
330
63
100
AcDbEntity
  8
0
  6
Continuous
 62
     7
100
AcDbLine
 10
-194.61566104209
 20
-48.41441554703188
 30
0.0
 11
-197.0297988625444
 21
-48.41441554703181
 31
0.0
  0
LINE
  5
204
330
63
100
AcDbEntity
  8
0
  6
Continuous
 62
     7
100
AcDbLine
 10
-193.8977299523185
 20
-48.75573380631097
 30
0.0
 11
-193.8977299523185
 21
-46.03158488317502
 31
0.0
  0
LINE
  5
205
330
63
100
AcDbEntity
  8
0
  6
Continuous
 62
     7
100
AcDbLine
 10
-196.4977299523079
 20
-75.74999993592888
 30
0.0
 11
-196.4977299523087
 21
-74.14999993593923
 31
0.0
  0
LINE
  5
206
330
63
100
AcDbEntity
  8
0
  6
Continuous
 62
     7
100
AcDbLine
 10
-196.4977299523087
 20
-74.14999993593923
 30
0.0
 11
-196.497729952308
 21
-69.74999993593872
 31
0.0
  0
LINE
  5
207
330
63
100
AcDbEntity
  8
0
  6
Continuous
 62
     7
100
AcDbLine
 10
-196.4977299523079
 20
-75.74999993592888
 30
0.0
 11
-195.1477299523079
 21
-75.74999993592891
 31
0.0
  0
LINE
  5
208
330
63
100
AcDbEntity
  8
0
  6
Continuous
 62
     7
100
AcDbLine
 10
-198.3977299523192
 20
-75.74999993594906
 30
0.0
 11
-196.4977299523079
 21
-75.74999993592888
 31
0.0
  0
LINE
  5
209
330
63
100
AcDbEntity
  8
0
  6
Continuous
 62
     7
100
AcDbLine
 10
-198.3977299523191
 20
-74.1499999359392
 30
0.0
 11
-196.4977299523087
 21
-74.14999993593923
 31
0.0
  0
LINE
  5
20A
330
63
100
AcDbEntity
  8
0
  6
Continuous
 62
     7
100
AcDbLine
 10
-193.2477299523185
 20
-74.14999993593918
 30
0.0
 11
-193.2477299523185
 21
-69.74999993594886
 31
0.0
  0
LINE
  5
20B
330
63
100
AcDbEntity
  8
0
  6
Continuous
 62
     7
100
AcDbLine
 10
-195.1477299523079
 20
-75.74999993592891
 30
0.0
 11
-195.1477299523087
 21
-74.14999993593915
 31
0.0
  0
LINE
  5
20C
330
63
100
AcDbEntity
  8
0
  6
Continuous
 62
     7
100
AcDbLine
 10
-195.1477299523079
 20
-75.74999993592891
 30
0.0
 11
-193.2477299523187
 21
-75.74999993594915
 31
0.0
  0
LINE
  5
20D
330
63
100
AcDbEntity
  8
0
  6
Continuous
 62
     7
100
AcDbLine
 10
-193.2477299523185
 20
-74.14999993593918
 30
0.0
 11
-195.1477299523087
 21
-74.14999993593915
 31
0.0
  0
LINE
  5
20E
330
63
100
AcDbEntity
  8
0
  6
Continuous
 62
     7
100
AcDbLine
 10
-198.3977299523191
 20
-74.1499999359392
 30
0.0
 11
-198.3977299523191
 21
-69.7499999359487
 31
0.0
  0
LINE
  5
20F
330
63
100
AcDbEntity
  8
0
  6
Continuous
 62
     7
100
AcDbLine
 10
-198.3977299523192
 20
-75.74999993594906
 30
0.0
 11
-198.3977299523191
 21
-74.1499999359392
 31
0.0
  0
LINE
  5
210
330
63
100
AcDbEntity
  8
0
  6
Continuous
 62
     7
100
AcDbLine
 10
-193.2477299523187
 20
-75.74999993594915
 30
0.0
 11
-193.2477299523185
 21
-74.14999993593918
 31
0.0
  0
LINE
  5
211
330
63
100
AcDbEntity
  8
0
  6
Continuous
 62
     7
100
AcDbLine
 10
-198.3977299523191
 20
-69.7499999359487
 30
0.0
 11
-196.497729952308
 21
-69.74999993593872
 31
0.0
  0
LINE
  5
212
330
63
100
AcDbEntity
  8
0
  6
Continuous
 62
     7
100
AcDbLine
 10
-195.147729952308
 20
-69.74999993593815
 30
0.0
 11
-193.2477299523185
 21
-69.74999993594886
 31
0.0
  0
LINE
  5
213
330
63
100
AcDbEntity
  8
0
  6
Continuous
 62
     7
100
AcDbLine
 10
-193.2477299523185
 20
-65.58174721069972
 30
0.0
 11
-193.2477299523185
 21
-56.74999993593123
 31
0.0
  0
LINE
  5
214
330
63
100
AcDbEntity
  8
0
  6
Continuous
 62
     7
100
AcDbLine
 10
-198.3977299523189
 20
-65.58174721069963
 30
0.0
 11
-193.2477299523185
 21
-65.58174721069972
 31
0.0
  0
LINE
  5
215
330
63
100
AcDbEntity
  8
0
  6
Continuous
 62
     7
100
AcDbLine
 10
-198.3977299523189
 20
-65.58174721069963
 30
0.0
 11
-198.3977299523191
 21
-69.7499999359487
 31
0.0
  0
LINE
  5
216
330
63
100
AcDbEntity
  8
0
  6
Continuous
 62
     7
100
AcDbLine
 10
-193.2477299523185
 20
-69.74999993594886
 30
0.0
 11
-193.2477299523185
 21
-65.58174721069972
 31
0.0
  0
LINE
  5
217
330
63
100
AcDbEntity
  8
0
  6
Continuous
 62
     7
100
AcDbLine
 10
-195.1477299523087
 20
-74.14999993593915
 30
0.0
 11
-195.147729952308
 21
-69.74999993593815
 31
0.0
  0
LINE
  5
218
330
63
100
AcDbEntity
  8
0
  6
Continuous
 62
     7
100
AcDbLine
 10
-193.8977299523185
 20
-45.95134198935412
 30
0.0
 11
-197.6977299523185
 21
-45.95134198935402
 31
0.0
  0
LINE
  5
219
330
63
100
AcDbEntity
  8
0
  6
Continuous
 62
     7
100
AcDbLine
 10
-198.3977299523187
 20
-46.03158488317502
 30
0.0
 11
-197.6977299523185
 21
-46.03158488317502
 31
0.0
  0
LINE
  5
21A
330
63
100
AcDbEntity
  8
0
  6
Continuous
 62
     7
100
AcDbLine
 10
-193.8977299523185
 20
-46.03158488317502
 30
0.0
 11
-193.8977299523185
 21
-45.95134198935412
 31
0.0
  0
LINE
  5
21B
330
63
100
AcDbEntity
  8
0
  6
Continuous
 62
     7
100
AcDbLine
 10
-193.2477299523185
 20
-46.03158488317502
 30
0.0
 11
-193.8977299523185
 21
-46.03158488317502
 31
0.0
  0
LINE
  5
21C
330
63
100
AcDbEntity
  8
0
  6
Continuous
 62
     7
100
AcDbLine
 10
-193.2477299523185
 20
-46.03158488317502
 30
0.0
 11
-193.2477299523185
 21
-51.51602533971925
 31
0.0
  0
LINE
  5
21D
330
63
100
AcDbEntity
  8
0
  6
Continuous
 62
     7
100
AcDbLine
 10
-198.3977299523186
 20
-50.94594641551257
 30
0.0
 11
-198.3977299523187
 21
-46.03158488317502
 31
0.0
  0
LINE
  5
21E
330
63
100
AcDbEntity
  8
0
  6
Continuous
 62
     7
100
AcDbLine
 10
-198.3977299523186
 20
-50.94594641551257
 30
0.0
 11
-198.3977299523185
 21
-52.63594641551009
 31
0.0
  0
LINE
  5
21F
330
63
100
AcDbEntity
  8
0
  6
Continuous
 62
     7
100
AcDbLine
 10
-198.3977299523189
 20
-65.58174721069963
 30
0.0
 11
-198.3977299523187
 21
-56.74999993593116
 31
0.0
  0
LINE
  5
220
330
63
100
AcDbEntity
  8
0
  6
Continuous
 62
     7
100
AcDbLine
 10
-198.3977299523186
 20
-50.94594641551257
 30
0.0
 11
-198.1794723752467
 21
-50.94594641551309
 31
0.0
  0
LINE
  5
221
330
63
100
AcDbEntity
  8
0
  6
Continuous
 62
     2
100
AcDbLine
 10
-198.3977299523185
 20
-52.63594641551009
 30
0.0
 11
-198.1794723752458
 21
-52.63594641551011
 31
0.0
  0
LINE
  5
222
330
63
100
AcDbEntity
  8
0
  6
Continuous
 62
     7
100
AcDbLine
 10
-197.6977299523185
 20
-46.03158488317502
 30
0.0
 11
-197.6977299523185
 21
-48.75573380631066
 31
0.0
  0
LINE
  5
223
330
63
100
AcDbEntity
  8
0
  6
Continuous
 62
     7
100
AcDbLine
 10
-198.1794723752458
 20
-52.63594641551011
 30
0.0
 11
-198.1794723752467
 21
-50.94594641551309
 31
0.0
  0
LINE
  5
224
330
63
100
AcDbEntity
  8
0
  6
Continuous
 62
     7
100
AcDbLine
 10
-198.3977299523187
 20
-46.03158488317502
 30
0.0
 11
-198.3977299523185
 21
-45.24999993593694
 31
0.0
  0
LINE
  5
225
330
63
100
AcDbEntity
  8
0
  6
Continuous
 62
     7
100
AcDbLine
 10
-197.6977299523185
 20
-45.95134198935402
 30
0.0
 11
-197.6977299523185
 21
-46.03158488317502
 31
0.0
  0
LINE
  5
226
330
63
100
AcDbEntity
  8
0
  6
Continuous
 62
     7
100
AcDbLine
 10
-198.3977299523185
 20
-45.24999993593694
 30
0.0
 11
-197.0727299523161
 21
-45.24999993593693
 31
0.0
  0
LINE
  5
227
330
63
100
AcDbEntity
  8
0
  6
Continuous
 62
     7
100
AcDbLine
 10
-197.6977299523185
 20
-48.75573380631066
 30
0.0
 11
-197.0357828931618
 21
-48.75573380631219
 31
0.0
  0
LINE
  5
228
330
63
100
AcDbEntity
  8
0
  6
Continuous
 62
     7
100
AcDbLine
 10
-194.5727299523162
 20
-45.24999993593862
 30
0.0
 11
-197.0727299523161
 21
-45.24999993593693
 31
0.0
  0
LINE
  5
229
330
63
100
AcDbEntity
  8
0
  6
Continuous
 62
     7
100
AcDbLine
 10
-197.0324442557332
 20
-45.57810060500734
 30
0.0
 11
-194.6130156489013
 21
-45.57810060500734
 31
0.0
  0
LINE
  5
22A
330
63
100
AcDbEntity
  8
0
  6
Continuous
 62
     7
100
AcDbLine
 10
-194.5727299523162
 20
-45.24999993593862
 30
0.0
 11
-193.2477299523185
 21
-45.24999993593694
 31
0.0
  0
LINE
  5
22B
330
63
100
AcDbEntity
  8
0
  6
Continuous
 62
     7
100
AcDbLine
 10
-193.2477299523185
 20
-46.03158488317502
 30
0.0
 11
-193.2477299523185
 21
-45.24999993593694
 31
0.0
  0
LINE
  5
22C
330
63
100
AcDbEntity
  8
0
  6
Continuous
 62
     7
100
AcDbLine
 10
-197.0727299523161
 20
-45.24999993593693
 30
0.0
 11
-197.0324442557332
 21
-45.57810060500734
 31
0.0
  0
LINE
  5
22D
330
63
100
AcDbEntity
  8
0
  6
Continuous
 62
     7
100
AcDbLine
 10
-194.6130156489013
 20
-45.57810060500734
 30
0.0
 11
-194.5727299523162
 21
-45.24999993593862
 31
0.0
  0
LINE
  5
22E
330
63
100
AcDbEntity
  8
0
  6
Continuous
 62
     7
100
AcDbLine
 10
-194.5477299523181
 20
-53.28970260811711
 30
0.0
 11
-194.5477299523962
 21
-52.89144147504847
 31
0.0
  0
LINE
  5
22F
330
63
100
AcDbEntity
  8
0
  6
Continuous
 62
     7
100
AcDbLine
 10
-194.3924296363892
 20
-52.79723871012807
 30
0.0
 11
-197.6030302682474
 21
-52.79723871012814
 31
0.0
  0
LINE
  5
230
330
63
100
AcDbEntity
  8
0
  6
Continuous
 62
     7
100
AcDbLine
 10
-197.4477299523182
 20
-52.89144147494083
 30
0.0
 11
-197.447729952318
 21
-53.28970260811713
 31
0.0
  0
LINE
  5
231
330
63
100
AcDbEntity
  8
0
  6
Continuous
 62
     7
100
AcDbLine
 10
-197.447729952318
 20
-54.0756841552882
 30
0.0
 11
-197.4477299523244
 21
-54.81175857886349
 31
0.0
  0
LINE
  5
232
330
63
100
AcDbEntity
  8
0
  6
Continuous
 62
     7
100
AcDbLine
 10
-193.2477299523185
 20
-56.74999993593123
 30
0.0
 11
-193.2477299523185
 21
-51.51602533971925
 31
0.0
  0
LINE
  5
233
330
63
100
AcDbEntity
  8
0
  6
Continuous
 62
     7
100
AcDbLine
 10
-193.6221835081725
 20
-51.51602533971925
 30
0.0
 11
-193.2477299523185
 21
-51.51602533971925
 31
0.0
  0
LINE
  5
234
330
63
100
AcDbEntity
  8
0
  6
Continuous
 62
     7
100
AcDbLine
 10
-193.5977299523197
 20
-52.60344096885748
 30
0.0
 11
-193.5977299523197
 21
-51.91062064582096
 31
0.0
  0
LINE
  5
235
330
63
100
AcDbEntity
  8
0
  6
Continuous
 62
     7
100
AcDbLine
 10
-197.0297988625444
 20
-48.41441554703181
 30
0.0
 11
-197.0357828931618
 21
-48.75573380631219
 31
0.0
  0
LINE
  5
236
330
63
100
AcDbEntity
  8
0
  6
Continuous
 62
     7
100
AcDbLine
 10
-194.6096770114724
 20
-48.7557338063028
 30
0.0
 11
-194.61566104209
 21
-48.41441554703188
 31
0.0
  0
LINE
  5
237
330
63
100
AcDbEntity
  8
0
  6
Continuous
 62
     7
100
AcDbLine
 10
-197.0357828931618
 20
-48.75573380631219
 30
0.0
 11
-193.8977299523185
 21
-48.75573380631097
 31
0.0
  0
LINE
  5
238
330
63
100
AcDbEntity
  8
0
  6
Continuous
 62
     7
100
AcDbLine
 10
-193.2477299523185
 20
-56.74999993593123
 30
0.0
 11
-198.3977299523187
 21
-56.74999993593116
 31
0.0
  0
LINE
  5
239
330
63
100
AcDbEntity
  8
0
  6
Continuous
 62
     7
100
AcDbLine
 10
-198.3977299523187
 20
-53.7581415072379
 30
0.0
 11
-198.3977299523187
 21
-56.74999993593116
 31
0.0
  0
LINE
  5
23A
330
63
100
AcDbEntity
  8
0
  6
Continuous
 62
     7
100
AcDbLine
 10
-198.1794723752488
 20
-53.75814150723438
 30
0.0
 11
-198.3977299523187
 21
-53.7581415072379
 31
0.0
  0
LINE
  5
23B
330
63
100
AcDbEntity
  8
0
  6
Continuous
 62
     7
100
AcDbLine
 10
-194.5477299523244
 20
-54.8117585788722
 30
0.0
 11
-194.5477299523181
 21
-54.07568415528816
 31
0.0
  0
LINE
  5
23C
330
63
100
AcDbEntity
  8
0
  6
Continuous
 62
     7
100
AcDbLine
 10
-197.447729952318
 20
-53.28970260811713
 30
0.0
 11
-197.447729952318
 21
-54.0756841552882
 31
0.0
  0
LINE
  5
23D
330
63
100
AcDbEntity
  8
0
  6
Continuous
 62
     7
100
AcDbLine
 10
-194.5477299523181
 20
-53.28970260811711
 30
0.0
 11
-197.447729952318
 21
-53.28970260811713
 31
0.0
  0
LINE
  5
23E
330
63
100
AcDbEntity
  8
0
  6
Continuous
 62
     7
100
AcDbLine
 10
-194.5477299523181
 20
-54.07568415528816
 30
0.0
 11
-194.5477299523181
 21
-53.28970260811711
 31
0.0
  0
LINE
  5
23F
330
63
100
AcDbEntity
  8
0
  6
Continuous
 62
     7
100
AcDbLine
 10
-197.447729952318
 20
-54.0756841552882
 30
0.0
 11
-194.5477299523181
 21
-54.07568415528816
 31
0.0
  0
SPLINE
  5
240
330
63
100
AcDbEntity
  8
0
  6
Continuous
 62
     7
100
AcDbSpline
210
0.0
220
0.0
230
1.0
 70
     8
 71
     3
 72
    17
 73
    13
 74
    11
 42
0.000000001
 43
0.0000000001
 44
0.00000001
 40
0.0
 40
0.0
 40
0.0
 40
0.0
 40
0.5568203317073394
 40
1.13439739993935
 40
1.731404204373693
 40
2.341830911211678
 40
2.956666203455207
 40
3.565950352565983
 40
4.160920522580307
 40
4.736038774375848
 40
5.290600975700674
 40
5.829415560104826
 40
5.829415560104826
 40
5.829415560104826
 40
5.829415560104826
 10
-198.1794723752467
 20
-50.94594641551309
 30
0.0
 10
-198.0787450033256
 20
-50.78872567972464
 30
0.0
 10
-197.8735354073686
 20
-50.46842345826104
 30
0.0
 10
-197.4115040694554
 20
-50.10634984561714
 30
0.0
 10
-196.8698990269219
 20
-49.85073486514852
 30
0.0
 10
-196.2700181356404
 20
-49.72413721635022
 30
0.0
 10
-195.6536720085233
 20
-49.7319769224486
 30
0.0
 10
-195.0591276357679
 20
-49.87440769409692
 30
0.0
 10
-194.5232370861839
 20
-50.14264608368174
 30
0.0
 10
-194.0849470232878
 20
-50.52152204177887
 30
0.0
 10
-193.7585100623345
 20
-50.98540982651318
 30
0.0
 10
-193.6671872558047
 20
-51.3408599854622
 30
0.0
 10
-193.6221835081725
 20
-51.51602533971925
 30
0.0
 11
-198.1794723752467
 21
-50.94594641551309
 31
0.0
 11
-197.853797085714
 21
-50.49429999332616
 31
0.0
 11
-197.4063041295532
 21
-50.12913519905739
 31
0.0
 11
-196.8663621322661
 21
-49.87442013077962
 31
0.0
 11
-196.2694099420742
 21
-49.74687073524068
 31
0.0
 11
-195.6546265613407
 21
-49.75486025425501
 31
0.0
 11
-195.062361792003
 21
-49.89786241712173
 31
0.0
 11
-194.5314881023252
 21
-50.1664934476066
 31
0.0
 11
-194.0968470098769
 21
-50.54312075264419
 31
0.0
 11
-193.7869666919497
 21
-51.00302664275043
 31
0.0
 11
-193.6221835081725
 21
-51.51602533971925
 31
0.0
  0
SPLINE
  5
241
330
63
100
AcDbEntity
  8
0
  6
Continuous
 62
     7
100
AcDbSpline
210
0.0
220
0.0
230
1.0
 70
     8
 71
     3
 72
    15
 73
    11
 74
     9
 42
0.000000001
 43
0.0000000001
 44
0.00000001
 40
0.0
 40
0.0
 40
0.0
 40
0.0
 40
0.6895654246690324
 40
1.292124880955752
 40
1.818309437962489
 40
2.298066592779695
 40
2.777823747596396
 40
3.304008304601871
 40
3.906567760885019
 40
4.596133185539991
 40
4.596133185539991
 40
4.596133185539991
 40
4.596133185539991
 10
-194.2922605641266
 20
-52.53960024392369
 30
0.0
 10
-194.4056713205485
 20
-52.33893705778149
 30
0.0
 10
-194.6181832337277
 20
-51.96292938467268
 30
0.0
 10
-195.0379940197398
 20
-51.5165255250721
 30
0.0
 10
-195.5001505510314
 20
-51.22901894840973
 30
0.0
 10
-195.9977299523143
 20
-51.12813346409315
 30
0.0
 10
-196.4953093535974
 20
-51.22901894840626
 30
0.0
 10
-196.957465884889
 20
-51.51652552506538
 30
0.0
 10
-197.3772766708996
 20
-51.96292938465928
 30
0.0
 10
-197.5897885840717
 20
-52.3389370577657
 30
0.0
 10
-197.7031993404889
 20
-52.53960024390523
 30
0.0
 11
-194.2922605641266
 21
-52.53960024392369
 31
0.0
 11
-194.6569326441246
 21
-51.95435264235294
 31
0.0
 11
-195.0737827105712
 21
-51.51925044433652
 31
0.0
 11
-195.5265889545216
 21
-51.25122676023479
 31
0.0
 11
-195.9977299523146
 21
-51.16071107396216
 31
0.0
 11
-196.4688709501076
 21
-51.25122676023167
 31
0.0
 11
-196.9216771940584
 21
-51.5192504443304
 31
0.0
 11
-197.3385272605036
 21
-51.95435264234315
 31
0.0
 11
-197.7031993404889
 21
-52.53960024390523
 31
0.0
  0
SPLINE
  5
242
330
63
100
AcDbEntity
  8
0
  6
Continuous
 62
     7
100
AcDbSpline
210
0.0
220
0.0
230
1.0
 70
     8
 71
     3
 72
    11
 73
     7
 74
     5
 42
0.000000001
 43
0.0000000001
 44
0.00000001
 40
0.0
 40
0.0
 40
0.0
 40
0.0
 40
0.068553342460323
 40
0.1382181649646202
 40
0.2068525656496106
 40
0.2764261777580816
 40
0.2764261777580816
 40
0.2764261777580816
 40
0.2764261777580816
 10
-197.6030302682474
 20
-52.79723871012814
 30
0.0
 10
-197.6113225896818
 20
-52.77594526433146
 30
0.0
 10
-197.6280416648976
 20
-52.73301312895899
 30
0.0
 10
-197.6530355563498
 20
-52.66875174043498
 30
0.0
 10
-197.6781353356808
 20
-52.60416663123218
 30
0.0
 10
-197.6948069122344
 20
-52.56121965883388
 30
0.0
 10
-197.7031993404889
 20
-52.53960024390523
 30
0.0
 11
-197.6030302682474
 21
-52.79723871012814
 31
0.0
 11
-197.6279027400252
 21
-52.73335662413852
 31
0.0
 11
-197.653157135204
 21
-52.66843048903732
 31
0.0
 11
-197.6780178785087
 21
-52.60445686634678
 31
0.0
 11
-197.7031993404889
 21
-52.53960024390523
 31
0.0
  0
SPLINE
  5
243
330
63
100
AcDbEntity
  8
0
  6
Continuous
 62
     7
100
AcDbSpline
210
0.0
220
0.0
230
1.0
 70
     8
 71
     3
 72
    17
 73
    13
 74
    11
 42
0.000000001
 43
0.0000000001
 44
0.00000001
 40
0.0
 40
0.0
 40
0.0
 40
0.0
 40
0.0562247551557516
 40
0.1159817532566359
 40
0.1866430771280888
 40
0.2622973116997935
 40
0.4326023330813685
 40
0.6188609518990213
 40
0.8123728032137475
 40
1.013419777656636
 40
1.076657092772763
 40
1.141844314007368
 40
1.141844314007368
 40
1.141844314007368
 40
1.141844314007368
 10
-198.1794723752458
 20
-52.63594641551011
 30
0.0
 10
-198.1800161114109
 20
-52.65468849892591
 30
0.0
 10
-198.1811377643123
 20
-52.69335011001193
 30
0.0
 10
-198.1884484492681
 20
-52.75519458449183
 30
0.0
 10
-198.1990900969475
 20
-52.82305788715207
 30
0.0
 10
-198.2189881178572
 20
-52.92672496852362
 30
0.0
 10
-198.2505862190822
 20
-53.06730536667519
 30
0.0
 10
-198.2923050838164
 20
-53.24585017811079
 30
0.0
 10
-198.3334648166383
 20
-53.43504865538053
 30
0.0
 10
-198.3604420201405
 20
-53.58530611346904
 30
0.0
 10
-198.3759937050082
 20
-53.69403320802813
 30
0.0
 10
-198.3809361771615
 20
-53.73655685738333
 30
0.0
 10
-198.3834449275048
 20
-53.75814150723932
 30
0.0
 11
-198.1794723752458
 21
-52.63594641551011
 31
0.0
 11
-198.1819076092324
 21
-52.69211841112725
 31
0.0
 11
-198.1883628033263
 21
-52.75152572700299
 31
0.0
 11
-198.1992146324989
 21
-52.82134879201216
 31
0.0
 11
-198.2132785967496
 21
-52.89568430218894
 31
0.0
 11
-198.2496423985975
 21
-53.06206180693249
 31
0.0
 11
-198.2913003514049
 21
-53.24360212733619
 31
0.0
 11
-198.3317979532729
 21
-53.43282892442044
 31
0.0
 11
-198.3667694722463
 21
-53.63081094060877
 31
0.0
 11
-198.3756302564265
 21
-53.69342439390523
 31
0.0
 11
-198.3834449275048
 21
-53.75814150723932
 31
0.0
  0
SPLINE
  5
244
330
63
100
AcDbEntity
  8
0
  6
Continuous
 62
     7
100
AcDbSpline
210
0.0
220
0.0
230
1.0
 70
     8
 71
     3
 72
    11
 73
     7
 74
     5
 42
0.000000001
 43
0.0000000001
 44
0.00000001
 40
0.0
 40
0.0
 40
0.0
 40
0.0
 40
0.346295707345239
 40
0.6975987456098638
 40
1.056072614213152
 40
1.423000135287366
 40
1.423000135287366
 40
1.423000135287366
 40
1.423000135287366
 10
-198.3811579538667
 20
-53.75814150723932
 30
0.0
 10
-198.3592032882048
 20
-53.64443368603123
 30
0.0
 10
-198.3149764846096
 20
-53.41537386656767
 30
0.0
 10
-198.1667536860745
 20
-53.09306411768981
 30
0.0
 10
-197.9665884123858
 20
-52.79245361952265
 30
0.0
 10
-197.7916751669827
 20
-52.62453698564236
 30
0.0
 10
-197.7031993404889
 20
-52.53960024390523
 30
0.0
 11
-198.3811579538667
 21
-53.75814150723932
 31
0.0
 11
-198.3020651364013
 21
-53.42099903896187
 31
0.0
 11
-198.1598395863091
 21
-53.0997736991723
 31
0.0
 11
-197.9583777639892
 21
-52.80326627960599
 31
0.0
 11
-197.7031993404889
 21
-52.53960024390523
 31
0.0
  0
SPLINE
  5
245
330
63
100
AcDbEntity
  8
0
  6
Continuous
 62
     7
100
AcDbSpline
210
0.0
220
0.0
230
1.0
 70
     8
 71
     3
 72
    11
 73
     7
 74
     5
 42
0.000000001
 43
0.0000000001
 44
0.00000001
 40
0.0
 40
0.0
 40
0.0
 40
0.0
 40
0.0455365159339113
 40
0.0903690183564792
 40
0.1363745267859856
 40
0.1816417058823115
 40
0.1816417058823115
 40
0.1816417058823115
 40
0.1816417058823115
 10
-194.3924296363892
 20
-52.79723871012807
 30
0.0
 10
-194.4053311057599
 20
-52.80523561778745
 30
0.0
 10
-194.4309345902499
 20
-52.82110578488668
 30
0.0
 10
-194.4697381052461
 20
-52.84478611922675
 30
0.0
 10
-194.5085806188936
 20
-52.86822933605706
 30
0.0
 10
-194.5347507377228
 20
-52.88374593899567
 30
0.0
 10
-194.5477299523962
 20
-52.89144147504847
 30
0.0
 11
-194.3924296363892
 21
-52.79723871012807
 31
0.0
 11
-194.4311619238332
 21
-52.82118415217396
 31
0.0
 11
-194.4694231360515
 21
-52.84455149943608
 31
0.0
 11
-194.5088223619996
 21
-52.86830455831785
 31
0.0
 11
-194.5477299523962
 21
-52.89144147504847
 31
0.0
  0
SPLINE
  5
246
330
63
100
AcDbEntity
  8
0
  6
Continuous
 62
     7
100
AcDbSpline
210
0.0
220
0.0
230
1.0
 70
     8
 71
     3
 72
    11
 73
     7
 74
     5
 42
0.000000001
 43
0.0000000001
 44
0.00000001
 40
0.0
 40
0.0
 40
0.0
 40
0.0
 40
0.0686423191855843
 40
0.1382181649640063
 40
0.2067348925567613
 40
0.276426177748456
 40
0.276426177748456
 40
0.276426177748456
 40
0.276426177748456
 10
-194.3924296363892
 20
-52.79723871012807
 30
0.0
 10
-194.3841265545013
 20
-52.77591762624986
 30
0.0
 10
-194.3674074839305
 20
-52.73298548906733
 30
0.0
 10
-194.3424278237108
 20
-52.66876065219572
 30
0.0
 10
-194.3173387711724
 20
-52.60420319416878
 30
0.0
 10
-194.300667189483
 20
-52.56125622376572
 30
0.0
 10
-194.2922605641266
 20
-52.53960024392369
 30
0.0
 11
-194.3924296363892
 21
-52.79723871012807
 31
0.0
 11
-194.3675248958879
 21
-52.73327370497696
 31
0.0
 11
-194.3423027694328
 21
-52.6684304890378
 31
0.0
 11
-194.3174846330785
 21
-52.60456655501911
 31
0.0
 11
-194.2922605641266
 21
-52.53960024392369
 31
0.0
  0
SPLINE
  5
247
330
63
100
AcDbEntity
  8
0
  6
Continuous
 62
     7
100
AcDbSpline
210
0.0
220
0.0
230
1.0
 70
     8
 71
     3
 72
    11
 73
     7
 74
     5
 42
0.000000001
 43
0.0000000001
 44
0.00000001
 40
0.0
 40
0.0
 40
0.0
 40
0.0
 40
0.04526718135325
 40
0.0912726874485669
 40
0.136102097626793
 40
0.1816417057607178
 40
0.1816417057607178
 40
0.1816417057607178
 40
0.1816417057607178
 10
-197.4477299523182
 20
-52.89144147494083
 30
0.0
 10
-197.4607091676552
 20
-52.88374593853217
 30
0.0
 10
-197.4868792864952
 20
-52.86822933566295
 30
0.0
 10
-197.525720917518
 20
-52.84478665125911
 30
0.0
 10
-197.5645244362069
 20
-52.82110632455687
 30
0.0
 10
-197.5901279220845
 20
-52.80523615969916
 30
0.0
 10
-197.6030302682474
 20
-52.79723871012814
 30
0.0
 11
-197.4477299523182
 21
-52.89144147494083
 31
0.0
 11
-197.4866375446745
 21
-52.86830455709
 31
0.0
 11
-197.5260367686233
 21
-52.84455149941286
 31
0.0
 11
-197.5642953462608
 21
-52.82118577111073
 31
0.0
 11
-197.6030302682474
 21
-52.79723871012814
 31
0.0
  0
SPLINE
  5
248
330
63
100
AcDbEntity
  8
0
  6
Continuous
 62
     7
100
AcDbSpline
210
0.0
220
0.0
230
1.0
 70
     8
 71
     3
 72
     9
 73
     5
 74
     3
 42
0.000000001
 43
0.0000000001
 44
0.00000001
 40
0.0
 40
0.0
 40
0.0
 40
0.0
 40
0.1976451942071145
 40
0.3955420316372004
 40
0.3955420316372004
 40
0.3955420316372004
 40
0.3955420316372004
 10
-193.6221835081725
 20
-51.51602533971925
 30
0.0
 10
-193.6150551233853
 20
-51.58155997738757
 30
0.0
 10
-193.6007892978256
 20
-51.71271269342201
 30
0.0
 10
-193.598750159929
 20
-51.84462335425973
 30
0.0
 10
-193.5977299523197
 20
-51.91062064582096
 30
0.0
 11
-193.6221835081725
 21
-51.51602533971925
 31
0.0
 11
-193.6038511475938
 21
-51.71281849882598
 31
0.0
 11
-193.5977299523197
 21
-51.91062064582096
 31
0.0
  0
SPLINE
  5
249
330
63
100
AcDbEntity
  8
0
  6
Continuous
 62
     7
100
AcDbSpline
210
0.0
220
0.0
230
1.0
 70
     8
 71
     3
 72
     9
 73
     5
 74
     3
 42
0.000000001
 43
0.0000000001
 44
0.00000001
 40
0.0
 40
0.0
 40
0.0
 40
0.0
 40
0.5364206021170856
 40
1.0556994635552
 40
1.0556994635552
 40
1.0556994635552
 40
1.0556994635552
 10
-194.2922605641266
 20
-52.53960024392369
 30
0.0
 10
-194.1634515505257
 20
-52.66632746858086
 30
0.0
 10
-193.9099497318278
 20
-52.91573226225098
 30
0.0
 10
-193.7690109574958
 20
-53.24207803879836
 30
0.0
 10
-193.6996858133871
 20
-53.40260143994499
 30
0.0
 11
-194.2922605641266
 21
-52.53960024392369
 31
0.0
 11
-193.9348955729428
 21
-52.9396468997496
 31
0.0
 11
-193.6996858133871
 21
-53.40260143994499
 31
0.0
  0
SPLINE
  5
24A
330
63
100
AcDbEntity
  8
0
  6
Continuous
 62
     7
100
AcDbSpline
210
0.0
220
0.0
230
1.0
 70
     8
 71
     3
 72
    17
 73
    13
 74
    11
 42
0.000000001
 43
0.0000000001
 44
0.00000001
 40
0.0
 40
0.0
 40
0.0
 40
0.0
 40
0.7475067979776343
 40
1.481920566463254
 40
2.193346105741225
 40
2.877886269602334
 40
3.539355362047653
 40
4.188877191125424
 40
4.841642076821952
 40
5.511716114223487
 40
6.2074165084599
 40
6.929257801639415
 40
6.929257801639415
 40
6.929257801639415
 40
6.929257801639415
 10
-193.5977299523197
 20
-52.60344096885748
 30
0.0
 10
-193.6145835018273
 20
-52.85319529117212
 30
0.0
 10
-193.6479954142036
 20
-53.34832933755156
 30
0.0
 10
-193.9135389939563
 20
-54.04091048896333
 30
0.0
 10
-194.318963396391
 20
-54.63194981369787
 30
0.0
 10
-194.8525282051913
 20
-55.07788897247681
 30
0.0
 10
-195.4734940509862
 20
-55.34333046155791
 30
0.0
 10
-196.1360436181546
 20
-55.40486313885062
 30
0.0
 10
-196.7881918099528
 20
-55.25704544420798
 30
0.0
 10
-197.3755874238953
 20
-54.91216310355783
 30
0.0
 10
-197.8692971857145
 20
-54.40456907690691
 30
0.0
 10
-198.0748173162573
 20
-53.97625024301929
 30
0.0
 10
-198.1794723752488
 20
-53.75814150723438
 30
0.0
 11
-193.5977299523197
 21
-52.60344096885748
 31
0.0
 11
-193.6854386633775
 21
-53.34578428659204
 31
0.0
 11
-193.94215118005
 21
-54.03387023356653
 31
0.0
 11
-194.3491071672185
 21
-54.61740525798454
 31
0.0
 11
-194.8765598781508
 21
-55.05374099533091
 31
0.0
 11
-195.4859595741521
 21
-55.31098285182025
 31
0.0
 11
-196.132764220786
 21
-55.37033230423843
 31
0.0
 11
-196.7696991327233
 21
-55.22744802943573
 31
0.0
 11
-197.3502113396453
 21
-54.89277685420316
 31
0.0
 11
-197.8318698805564
 21
-54.39077676256769
 31
0.0
 11
-198.1794723752488
 21
-53.75814150723438
 31
0.0
  0
ENDBLK
  5
65
330
63
100
AcDbEntity
  8
0
100
AcDbBlockEnd
  0
BLOCK
  5
68
330
66
100
AcDbEntity
  8
0
100
AcDbBlockBegin
  2
SA_Rechts1
 70
     0
 10
-195.82273
 20
-60.5
 30
0.0
  3
SA_Rechts1
  1

  0
INSERT
  5
67
330
66
100
AcDbEntity
  8
0
100
AcDbBlockReference
  2
MSBV_2_5_NS_35_YE-select__5
 10
-198.3977299523192
 20
-75.74999993594915
 30
0.0
  0
MTEXT
  5
24B
330
66
100
AcDbEntity
  8
1
 62
     6
100
AcDbMText
 10
-195.8227299523188
 20
-78.24999993594915
 30
0.0
 40
2.5
 41
0.0
 71
     2
 72
     1
  1
 
  7
CONVERTER_11
 73
     1
 44
1.32052821128451
  0
ENDBLK
  5
69
330
66
100
AcDbEntity
  8
0
100
AcDbBlockEnd
  0
BLOCK
  5
6B
330
6A
100
AcDbEntity
  8
0
100
AcDbBlockBegin
  2
MSBV_2_5_NS_35_YE-select__6
 70
     0
 10
-175.2884211592486
 20
-75.74999993597243
 30
0.0
  3
MSBV_2_5_NS_35_YE-select__6
  1

  0
LINE
  5
24C
330
6A
100
AcDbEntity
  8
0
  6
Continuous
 62
     7
100
AcDbLine
 10
-173.0413294857871
 20
-64.50801934494567
 30
0.0
 11
-170.969914737126
 21
-64.5080193449451
 31
0.0
  0
LINE
  5
24D
330
6A
100
AcDbEntity
  8
0
  6
Continuous
 62
     7
100
AcDbLine
 10
-173.7884211592458
 20
-73.32082032921849
 30
0.0
 11
-173.7884211592458
 21
-74.24999993596839
 31
0.0
  0
LINE
  5
24E
330
6A
100
AcDbEntity
  8
0
  6
Continuous
 62
     7
100
AcDbLine
 10
-173.0413294857871
 20
-64.50801934494567
 30
0.0
 11
-169.0884211592489
 21
-56.74999993597395
 31
0.0
  0
LINE
  5
24F
330
6A
100
AcDbEntity
  8
0
  6
Continuous
 62
     7
100
AcDbLine
 10
-156.9884211592503
 20
-45.24999993596059
 30
0.0
 11
-165.9219779853183
 21
-46.03158488320536
 31
0.0
  0
LINE
  5
250
330
6A
100
AcDbEntity
  8
0
  6
Continuous
 62
     7
100
AcDbLine
 10
-156.2846091807894
 20
-45.24999993596065
 30
0.0
 11
-156.9884211592503
 21
-45.24999993596059
 31
0.0
  0
LINE
  5
251
330
6A
100
AcDbEntity
  8
0
  6
Continuous
 62
     7
100
AcDbLine
 10
-156.2846091807894
 20
-45.24999993596065
 30
0.0
 11
-155.9786135381219
 21
-45.77999993596376
 31
0.0
  0
LINE
  5
252
330
6A
100
AcDbEntity
  8
0
  6
Continuous
 62
     7
100
AcDbLine
 10
-155.9786135381219
 20
-45.77999993596376
 30
0.0
 11
-156.2509211592544
 21
-45.77999993596364
 31
0.0
  0
LINE
  5
253
330
6A
100
AcDbEntity
  8
0
  6
Continuous
 62
     7
100
AcDbLine
 10
-171.7884211592458
 20
-71.7499999359641
 30
0.0
 11
-171.7884211592457
 21
-74.24999993596802
 31
0.0
  0
LINE
  5
254
330
6A
100
AcDbEntity
  8
0
  6
Continuous
 62
     7
100
AcDbLine
 10
-170.288421159244
 20
-70.84999993597054
 30
0.0
 11
-170.2884211592446
 21
-69.74999993596975
 31
0.0
  0
LINE
  5
255
330
6A
100
AcDbEntity
  8
0
  6
Continuous
 62
     7
100
AcDbLine
 10
-156.2509211592544
 20
-45.77999993596364
 30
0.0
 11
-156.2509211592544
 21
-46.84999993596327
 31
0.0
  0
LINE
  5
256
330
6A
100
AcDbEntity
  8
0
  6
Continuous
 62
     7
100
AcDbLine
 10
-168.7592859389097
 20
-50.94594641553714
 30
0.0
 11
-165.9219779853183
 21
-46.03158488320536
 31
0.0
  0
LINE
  5
257
330
6A
100
AcDbEntity
  8
0
  6
Continuous
 62
     7
100
AcDbLine
 10
-149.8922331377161
 20
-45.24999993595851
 30
0.0
 11
-150.1982287803832
 21
-45.77999993596184
 31
0.0
  0
LINE
  5
258
330
6A
100
AcDbEntity
  8
0
  6
Continuous
 62
     7
100
AcDbLine
 10
-149.9259211592506
 20
-45.77999993596154
 30
0.0
 11
-149.92592115925
 21
-46.84999993596156
 31
0.0
  0
LINE
  5
259
330
6A
100
AcDbEntity
  8
0
  6
Continuous
 62
     7
100
AcDbLine
 10
-149.8922331377161
 20
-45.24999993595851
 30
0.0
 11
-149.1884211592535
 21
-45.24999993595802
 31
0.0
  0
LINE
  5
25A
330
6A
100
AcDbEntity
  8
0
  6
Continuous
 62
     7
100
AcDbLine
 10
-132.5884211592414
 20
-75.749999935949
 30
0.0
 11
-132.5884211592445
 21
-69.74999993595881
 31
0.0
  0
LINE
  5
25B
330
6A
100
AcDbEntity
  8
0
  6
Continuous
 62
     7
100
AcDbLine
 10
-132.5884211592467
 20
-65.58174721072069
 30
0.0
 11
-132.5884211592445
 21
-69.74999993595881
 31
0.0
  0
LINE
  5
25C
330
6A
100
AcDbEntity
  8
0
  6
Continuous
 62
     7
100
AcDbLine
 10
-137.0884211592408
 20
-53.758141507246
 30
0.0
 11
-137.088421159249
 21
-56.74999993595223
 31
0.0
  0
LINE
  5
25D
330
6A
100
AcDbEntity
  8
0
  6
Continuous
 62
     7
100
AcDbLine
 10
-140.2548643331942
 20
-46.03158488319608
 30
0.0
 11
-149.1884211592535
 21
-45.24999993595802
 31
0.0
  0
LINE
  5
25E
330
6A
100
AcDbEntity
  8
0
  6
Continuous
 62
     7
100
AcDbLine
 10
-135.2562504046862
 20
-75.7499999359504
 30
0.0
 11
-132.5884211592414
 21
-75.749999935949
 31
0.0
  0
LINE
  5
25F
330
6A
100
AcDbEntity
  8
0
  6
Continuous
 62
     7
100
AcDbLine
 10
-170.947380677832
 20
-75.74999993597015
 30
0.0
 11
-175.2884211592443
 21
-75.74999993597243
 31
0.0
  0
LINE
  5
260
330
6A
100
AcDbEntity
  8
0
  6
Continuous
 62
     7
100
AcDbLine
 10
-150.1982287803832
 20
-45.77999993596184
 30
0.0
 11
-149.9259211592506
 21
-45.77999993596154
 31
0.0
  0
LINE
  5
261
330
6A
100
AcDbEntity
  8
0
  6
Continuous
 62
     7
100
AcDbLine
 10
-137.4175563796011
 20
-50.94594641553364
 30
0.0
 11
-140.2548643331942
 21
-46.03158488319608
 31
0.0
  0
LINE
  5
262
330
6A
100
AcDbEntity
  8
0
  6
Continuous
 62
     7
100
AcDbLine
 10
-137.0884211592503
 20
-52.60344096886743
 30
0.0
 11
-137.0884211592408
 21
-53.758141507246
 31
0.0
  0
LINE
  5
263
330
6A
100
AcDbEntity
  8
0
  6
Continuous
 62
     7
100
AcDbLine
 10
-137.0884211592503
 20
-52.60344096886743
 30
0.0
 11
-137.0884211592506
 21
-51.91062064583659
 31
0.0
  0
LINE
  5
264
330
6A
100
AcDbEntity
  8
0
  6
Continuous
 62
     7
100
AcDbLine
 10
-137.4175563796011
 20
-50.94594641553364
 30
0.0
 11
-137.0884211592601
 21
-51.51602533972067
 31
0.0
  0
LINE
  5
265
330
6A
100
AcDbEntity
  8
0
  6
Continuous
 62
     7
100
AcDbLine
 10
-137.4175563796011
 20
-50.94594641553364
 30
0.0
 11
-140.3447222443825
 21
-52.63594641553117
 31
0.0
  0
LINE
  5
266
330
6A
100
AcDbEntity
  8
0
  6
Continuous
 62
     7
100
AcDbLine
 10
-137.0884211592601
 20
-51.51602533972067
 30
0.0
 11
-137.0884211592506
 21
-51.91062064583659
 31
0.0
  0
LINE
  5
267
330
6A
100
AcDbEntity
  8
0
  6
Continuous
 62
     7
100
AcDbLine
 10
-140.7107476481657
 20
-54.00197181931594
 30
0.0
 11
-140.4107476481651
 21
-54.5215870615866
 31
0.0
  0
LINE
  5
268
330
6A
100
AcDbEntity
  8
0
  6
Continuous
 62
     7
100
AcDbLine
 10
-135.7761219186569
 20
-74.14999993595947
 30
0.0
 11
-135.2562504046862
 21
-75.7499999359504
 31
0.0
  0
LINE
  5
269
330
6A
100
AcDbEntity
  8
0
  6
Continuous
 62
     7
100
AcDbLine
 10
-135.5884211592445
 20
-69.74999993595159
 30
0.0
 11
-135.5884211592439
 21
-70.8499999359515
 31
0.0
  0
LINE
  5
26A
330
6A
100
AcDbEntity
  8
0
  6
Continuous
 62
     7
100
AcDbLine
 10
-135.5884211592439
 20
-70.8499999359515
 30
0.0
 11
-136.5884211592438
 21
-71.02632691666054
 31
0.0
  0
LINE
  5
26B
330
6A
100
AcDbEntity
  8
0
  6
Continuous
 62
     7
100
AcDbLine
 10
-135.7761219186569
 20
-74.14999993595947
 30
0.0
 11
-136.5884211592435
 21
-71.64999993595208
 31
0.0
  0
LINE
  5
26C
330
6A
100
AcDbEntity
  8
0
  6
Continuous
 62
     7
100
AcDbLine
 10
-132.5884211592445
 20
-69.74999993595881
 30
0.0
 11
-135.1287623436766
 21
-74.14999993596027
 31
0.0
  0
LINE
  5
26D
330
6A
100
AcDbEntity
  8
0
  6
Continuous
 62
     7
100
AcDbLine
 10
-139.0447222443809
 20
-54.88761246536905
 30
0.0
 11
-137.0884211592408
 21
-53.758141507246
 31
0.0
  0
LINE
  5
26E
330
6A
100
AcDbEntity
  8
0
  6
Continuous
 62
     2
100
AcDbLine
 10
-137.0884211592503
 20
-52.60344096886743
 30
0.0
 11
-140.4107476481651
 21
-54.5215870615866
 31
0.0
  0
LINE
  5
26F
330
6A
100
AcDbEntity
  8
0
  6
Continuous
 62
     2
100
AcDbLine
 10
-137.0884211592506
 20
-51.91062064583659
 30
0.0
 11
-140.7107476481657
 21
-54.00197181931594
 31
0.0
  0
LINE
  5
270
330
6A
100
AcDbEntity
  8
0
  6
Continuous
 62
     7
100
AcDbLine
 10
-136.5884211592438
 20
-71.02632691666054
 30
0.0
 11
-136.5884211592435
 21
-71.64999993595208
 31
0.0
  0
LINE
  5
271
330
6A
100
AcDbEntity
  8
0
  6
Continuous
 62
     7
100
AcDbLine
 10
-171.7884211592458
 20
-71.7499999359641
 30
0.0
 11
-174.3884211592459
 21
-71.74999993596984
 31
0.0
  0
LINE
  5
272
330
6A
100
AcDbEntity
  8
0
  6
Continuous
 62
     7
100
AcDbLine
 10
-169.2884211592468
 20
-71.11794912840037
 30
0.0
 11
-169.2884211592465
 21
-71.64999993596945
 31
0.0
  0
LINE
  5
273
330
6A
100
AcDbEntity
  8
0
  6
Continuous
 62
     7
100
AcDbLine
 10
-170.288421159244
 20
-70.84999993597054
 30
0.0
 11
-169.2884211592468
 21
-71.11794912840037
 31
0.0
  0
LINE
  5
274
330
6A
100
AcDbEntity
  8
0
  6
Continuous
 62
     7
100
AcDbLine
 10
-135.5884211592445
 20
-69.74999993595159
 30
0.0
 11
-168.7355068886295
 21
-69.74999993596902
 31
0.0
  0
LINE
  5
275
330
6A
100
AcDbEntity
  8
0
  6
Continuous
 62
     7
100
AcDbLine
 10
-169.0884211592489
 20
-56.74999993597395
 30
0.0
 11
-169.0884211592524
 21
-53.75814150725896
 31
0.0
  0
LINE
  5
276
330
6A
100
AcDbEntity
  8
0
  6
Continuous
 62
     7
100
AcDbLine
 10
-169.0884211592503
 20
-52.60344096887609
 30
0.0
 11
-169.0884211592524
 21
-53.75814150725896
 31
0.0
  0
LINE
  5
277
330
6A
100
AcDbEntity
  8
0
  6
Continuous
 62
     7
100
AcDbLine
 10
-169.0884211592505
 20
-51.91062064584526
 30
0.0
 11
-169.0884211592503
 21
-52.60344096887609
 31
0.0
  0
LINE
  5
278
330
6A
100
AcDbEntity
  8
0
  6
Continuous
 62
     7
100
AcDbLine
 10
-167.1321200741192
 20
-54.88761246537662
 30
0.0
 11
-169.0884211592524
 21
-53.75814150725896
 31
0.0
  0
LINE
  5
279
330
6A
100
AcDbEntity
  8
0
  6
Continuous
 62
     7
100
AcDbLine
 10
-165.4660946703348
 20
-54.00197181932263
 30
0.0
 11
-165.766094670335
 21
-54.52158706159318
 31
0.0
  0
LINE
  5
27A
330
6A
100
AcDbEntity
  8
0
  6
Continuous
 62
     2
100
AcDbLine
 10
-169.0884211592505
 20
-51.91062064584526
 30
0.0
 11
-165.4660946703348
 21
-54.00197181932263
 31
0.0
  0
LINE
  5
27B
330
6A
100
AcDbEntity
  8
0
  6
Continuous
 62
     2
100
AcDbLine
 10
-169.0884211592503
 20
-52.60344096887609
 30
0.0
 11
-165.766094670335
 21
-54.52158706159318
 31
0.0
  0
LINE
  5
27C
330
6A
100
AcDbEntity
  8
0
  6
Continuous
 62
     7
100
AcDbLine
 10
-169.0884211592507
 20
-51.51602533972259
 30
0.0
 11
-169.0884211592505
 21
-51.91062064584526
 31
0.0
  0
LINE
  5
27D
330
6A
100
AcDbEntity
  8
0
  6
Continuous
 62
     7
100
AcDbLine
 10
-168.7592859389097
 20
-50.94594641553714
 30
0.0
 11
-169.0884211592507
 21
-51.51602533972259
 31
0.0
  0
LINE
  5
27E
330
6A
100
AcDbEntity
  8
0
  6
Continuous
 62
     7
100
AcDbLine
 10
-168.7592859389097
 20
-50.94594641553714
 30
0.0
 11
-165.8321200741189
 21
-52.63594641553806
 31
0.0
  0
LINE
  5
27F
330
6A
100
AcDbEntity
  8
0
  6
Continuous
 62
     7
100
AcDbLine
 10
-149.92592115925
 20
-46.84999993596156
 30
0.0
 11
-156.2509211592544
 21
-46.84999993596327
 31
0.0
  0
LINE
  5
280
330
6A
100
AcDbEntity
  8
0
  6
Continuous
 62
     7
100
AcDbLine
 10
-171.7884211592462
 20
-69.14999993597053
 30
0.0
 11
-171.7884211592458
 21
-71.7499999359641
 31
0.0
  0
LINE
  5
281
330
6A
100
AcDbEntity
  8
0
  6
Continuous
 62
     7
100
AcDbLine
 10
-170.969914737126
 20
-64.5080193449451
 30
0.0
 11
-171.7884211592462
 21
-69.14999993597053
 31
0.0
  0
LINE
  5
282
330
6A
100
AcDbEntity
  8
0
  6
Continuous
 62
     7
100
AcDbLine
 10
-169.0306370277152
 20
-65.05588565213804
 30
0.0
 11
-170.2884211592446
 21
-69.74999993596975
 31
0.0
  0
LINE
  5
283
330
6A
100
AcDbEntity
  8
0
  6
Continuous
 62
     7
100
AcDbLine
 10
-167.5817482882819
 20
-65.44411421979103
 30
0.0
 11
-168.7355068886295
 21
-69.74999993596902
 31
0.0
  0
LINE
  5
284
330
6A
100
AcDbEntity
  8
0
  6
Continuous
 62
     7
100
AcDbLine
 10
-175.2884211592443
 20
-75.74999993597243
 30
0.0
 11
-175.2884211592459
 21
-72.64999993597252
 31
0.0
  0
LINE
  5
285
330
6A
100
AcDbEntity
  8
0
  6
Continuous
 62
     7
100
AcDbLine
 10
-173.7884211592458
 20
-74.24999993596839
 30
0.0
 11
-171.7884211592457
 21
-74.24999993596802
 31
0.0
  0
LINE
  5
286
330
6A
100
AcDbEntity
  8
0
  6
Continuous
 62
     7
100
AcDbLine
 10
-135.1287623436766
 20
-74.14999993596027
 30
0.0
 11
-135.7761219186569
 21
-74.14999993595947
 31
0.0
  0
LINE
  5
287
330
6A
100
AcDbEntity
  8
0
  6
Continuous
 62
     7
100
AcDbLine
 10
-132.5884211592467
 20
-65.58174721072069
 30
0.0
 11
-137.088421159249
 21
-56.74999993595223
 31
0.0
  0
ARC
  5
288
330
6A
100
AcDbEntity
  8
0
  6
Continuous
 62
     7
100
AcDbCircle
 10
-174.3884211592472
 20
-72.64999993596984
 30
0.0
 40
0.8999999999999821
100
AcDbArc
 50
311.8103148959005
 51
89.99999999991677
  0
ARC
  5
289
330
6A
100
AcDbEntity
  8
0
  6
Continuous
 62
     7
100
AcDbCircle
 10
-178.6823895879785
 20
-70.23459993597419
 30
0.0
 40
9.500000000000057
100
AcDbArc
 50
324.5094677152792
 51
351.4316303692507
  0
ARC
  5
28A
330
6A
100
AcDbEntity
  8
0
  6
Continuous
 62
     7
100
AcDbCircle
 10
-139.8447222443817
 20
-53.50197181931517
 30
0.0
 40
1.000000000000018
100
AcDbArc
 50
120.0000000000521
 51
210.0000000000508
  0
ARC
  5
28B
330
6A
100
AcDbEntity
  8
0
  6
Continuous
 62
     7
100
AcDbCircle
 10
-139.5447222443816
 20
-54.02158706158502
 30
0.0
 40
0.9999999999999847
100
AcDbArc
 50
210.0000000001049
 51
300.000000000047
  0
ARC
  5
28C
330
6A
100
AcDbEntity
  8
0
  6
Continuous
 62
     7
100
AcDbCircle
 10
-166.6321200741189
 20
-54.02158706159236
 30
0.0
 40
0.9999999999999983
100
AcDbArc
 50
239.9999999999793
 51
329.9999999999434
  0
ARC
  5
28D
330
6A
100
AcDbEntity
  8
0
  6
Continuous
 62
     7
100
AcDbCircle
 10
-166.3321200741191
 20
-53.50197181932235
 30
0.0
 40
1.000000000000024
100
AcDbArc
 50
329.9999999999824
 51
59.99999999998593
  0
ARC
  5
28E
330
6A
100
AcDbEntity
  8
0
  6
Continuous
 62
     7
100
AcDbCircle
 10
-168.3061926579988
 20
-65.2499999359645
 30
0.0
 40
0.7500000000000097
100
AcDbArc
 50
345.0000000000282
 51
165.0000000000244
  0
ARC
  5
28F
330
6A
100
AcDbEntity
  8
0
  6
Continuous
 62
     7
100
AcDbCircle
 10
-174.3884211592451
 20
-72.6499999359707
 30
0.0
 40
0.9000000000008583
100
AcDbArc
 50
90.00000000005066
 51
180.0000000001158
  0
ENDBLK
  5
6C
330
6A
100
AcDbEntity
  8
0
100
AcDbBlockEnd
  0
BLOCK
  5
6F
330
6D
100
AcDbEntity
  8
0
100
AcDbBlockBegin
  2
Vordans1
 70
     0
 10
-153.938421
 20
-60.5
 30
0.0
  3
Vordans1
  1

  0
INSERT
  5
6E
330
6D
100
AcDbEntity
  8
0
100
AcDbBlockReference
  2
MSBV_2_5_NS_35_YE-select__6
 10
-175.2884211592486
 20
-75.74999993597243
 30
0.0
  0
LINE
  5
290
330
6D
100
AcDbEntity
  8
1
  6
DOT_CENTER
 62
     2
100
AcDbLine
 10
-153.0884211592464
 20
-66.05385137220819
 30
0.0
 11
-153.0884211592424
 21
-75.74999993597015
 31
0.0
  0
MTEXT
  5
291
330
6D
100
AcDbEntity
  8
1
 62
     6
100
AcDbMText
 10
-158.2349789872232
 20
-73.66061927206803
 30
0.0
 40
2.5
 41
0.0
 71
     2
 72
     1
  1
 
  7
CONVERTER_11
 73
     1
 44
1.32052821128451
  0
DIMENSION
  5
29C
330
6D
100
AcDbEntity
  8
1
100
AcDbDimension
  2
*D18
 10
-153.0884211592424
 20
-80.74999993597015
 30
0.0
 11
-144.4272266916277
 21
-79.03749993597015
 31
0.0
 70
    32
  1
<>
 71
     5
 42
-1.0
 53
0.00013888888889
  3
ME10_DIM_11
100
AcDbAlignedDimension
 13
-135.5884211592439
 23
-70.8499999359515
 33
0.0
 14
-153.0884211592424
 24
-75.74999993597015
 34
0.0
100
AcDbRotatedDimension
  0
DIMENSION
  5
2A7
330
6D
100
AcDbEntity
  8
1
100
AcDbDimension
  2
*D19
 10
-132.5884211592445
 20
-84.74999993597015
 30
0.0
 11
-141.72257051018
 21
-83.03749993597015
 31
0.0
 70
    32
  1
<>
 71
     5
 42
-1.0
 53
0.00013888888889
  3
ME10_DIM_12
100
AcDbAlignedDimension
 13
-153.0884211592424
 23
-75.74999993597015
 33
0.0
 14
-132.5884211592445
 24
-69.74999993595881
 34
0.0
100
AcDbRotatedDimension
  0
DIMENSION
  5
2B2
330
6D
100
AcDbEntity
  8
1
100
AcDbDimension
  2
*D20
 10
-175.2884211592443
 20
-88.74999993597015
 30
0.0
 11
-152.632158363963
 21
-87.03749993597015
 31
0.0
 70
    32
  1
<>
 71
     5
 42
-1.0
 53
0.00013888888889
  3
ME10_DIM_13
100
AcDbAlignedDimension
 13
-132.5884211592445
 23
-69.74999993595881
 33
0.0
 14
-175.2884211592443
 24
-75.74999993597243
 34
0.0
100
AcDbRotatedDimension
  0
DIMENSION
  5
2BD
330
6D
100
AcDbEntity
  8
1
100
AcDbDimension
  2
*D21
 10
-180.2884211592465
 20
-69.74999993596904
 30
0.0
 11
-182.0009211592465
 21
-57.38281490231401
 31
0.0
 70
    32
  1
<>
 71
     5
 42
-1.0
 53
90.0
  3
ME10_DIM_14
100
AcDbAlignedDimension
 13
-156.9884211592503
 23
-45.24999993596059
 33
0.0
 14
-168.7355068886295
 24
-69.74999993596902
 34
0.0
 50
90.0
100
AcDbRotatedDimension
  0
DIMENSION
  5
2C8
330
6D
100
AcDbEntity
  8
1
100
AcDbDimension
  2
*D22
 10
-184.2884211592465
 20
-75.7499999359701
 30
0.0
 11
-186.0009211592465
 21
-60.42044650602698
 31
0.0
 70
    32
  1
<>
 71
     5
 42
-1.0
 53
90.0
  3
ME10_DIM_15
100
AcDbAlignedDimension
 13
-156.9884211592503
 23
-45.24999993596059
 33
0.0
 14
-170.947380677832
 24
-75.74999993597015
 34
0.0
 50
90.0
100
AcDbRotatedDimension
  0
ENDBLK
  5
70
330
6D
100
AcDbEntity
  8
0
100
AcDbBlockEnd
  0
BLOCK
  5
72
330
71
100
AcDbEntity
  8
0
100
AcDbBlockBegin
  2
_rahmen
 70
     0
 10
-123.4999999999899
 20
-267.0000000000051
 30
0.0
  3
_rahmen
  1

  0
LINE
  5
2C9
330
71
100
AcDbEntity
  8
1
  6
DOT_CENTER
 62
     2
100
AcDbLine
 10
-249.0581496401773
 20
-240.8750000000051
 30
0.0
 11
-243.5581496401773
 21
-240.8750000000051
 31
0.0
  0
LINE
  5
2CA
330
71
100
AcDbEntity
  8
1
  6
PHANTOM
 62
     2
100
AcDbLine
 10
-240.3081496401773
 20
-238.1250000000051
 30
0.0
 11
-240.3081496401773
 21
-243.6250000000051
 31
0.0
  0
LINE
  5
2CB
330
71
100
AcDbEntity
  8
1
  6
PHANTOM
 62
     2
100
AcDbLine
 10
-237.5581496401773
 20
-240.8750000000051
 30
0.0
 11
-243.0581496401773
 21
-240.8750000000051
 31
0.0
  0
LINE
  5
2CC
330
71
100
AcDbEntity
  8
1
  6
Continuous
 62
     7
100
AcDbLine
 10
-188.7448045267399
 20
-253.5000000000051
 30
0.0
 11
-188.7448045267399
 21
-245.000000000005
 31
0.0
  0
LINE
  5
2CD
330
71
100
AcDbEntity
  8
1
  6
Continuous
 62
     6
100
AcDbLine
 10
-216.64480452674
 20
-245.000000000005
 30
0.0
 11
-123.4999999999882
 21
-245.000000000005
 31
0.0
  0
LINE
  5
2CE
330
71
100
AcDbEntity
  8
1
  6
Continuous
 62
     7
100
AcDbLine
 10
-253.0448045267399
 20
-245.000000000005
 30
0.0
 11
-253.0448045267399
 21
-236.500000000005
 31
0.0
  0
LINE
  5
2CF
330
71
100
AcDbEntity
  8
1
  6
Continuous
 62
     7
100
AcDbLine
 10
-216.64480452674
 20
-245.000000000005
 30
0.0
 11
-216.64480452674
 21
-236.500000000005
 31
0.0
  0
LINE
  5
2D0
330
71
100
AcDbEntity
  8
1
  6
Continuous
 62
     7
100
AcDbLine
 10
-158.918408281667
 20
-236.500000000005
 30
0.0
 11
-158.918408281667
 21
-245.000000000005
 31
0.0
  0
LINE
  5
2D1
330
71
100
AcDbEntity
  8
1
  6
Continuous
 62
     7
100
AcDbLine
 10
-132.4184082816674
 20
-236.500000000005
 30
0.0
 11
-132.4184082816674
 21
-245.000000000005
 31
0.0
  0
LINE
  5
2D2
330
71
100
AcDbEntity
  8
1
  6
Continuous
 62
     6
100
AcDbLine
 10
-322.0448045267399
 20
-262.000000000005
 30
0.0
 11
-366.9999999999899
 21
-262.000000000005
 31
0.0
  0
LINE
  5
2D3
330
71
100
AcDbEntity
  8
1
  6
Continuous
 62
     7
100
AcDbLine
 10
-123.4999999999886
 20
-253.500000000005
 30
0.0
 11
-216.64480452674
 21
-253.500000000005
 31
0.0
  0
LINE
  5
2D4
102
{ACAD_REACTORS
330
3E6
330
3E7
102
}
330
71
100
AcDbEntity
  8
0
  6
Continuous
 62
     2
100
AcDbLine
 10
-239.3373755849725
 20
-252.6997108843417
 30
0.0
 11
-239.3373755849725
 21
-251.8271938775384
 31
0.0
  0
LINE
  5
2D5
102
{ACAD_REACTORS
330
3E6
330
3E7
102
}
330
71
100
AcDbEntity
  8
0
  6
Continuous
 62
     2
100
AcDbLine
 10
-239.3373755849725
 20
-253.6594795918246
 30
0.0
 11
-239.3373755849725
 21
-254.5319965986278
 31
0.0
  0
LINE
  5
2D6
102
{ACAD_REACTORS
330
3E8
330
3E9
102
}
330
71
100
AcDbEntity
  8
0
  6
Continuous
 62
     2
100
AcDbLine
 10
-224.004331448682
 20
-252.4379557823012
 30
0.0
 11
-222.9006921491139
 21
-252.4379557823012
 31
0.0
  0
LINE
  5
2D7
102
{ACAD_REACTORS
330
3E8
330
3E9
102
}
330
71
100
AcDbEntity
  8
0
  6
Continuous
 62
     2
100
AcDbLine
 10
-223.2346741057206
 20
-253.6594795918251
 30
0.0
 11
-223.2346741057206
 21
-254.5319965986284
 31
0.0
  0
LINE
  5
2D8
102
{ACAD_REACTORS
330
3F2
330
3F3
102
}
330
71
100
AcDbEntity
  8
0
  6
Continuous
 62
     2
100
AcDbLine
 10
-225.0954307211005
 20
-251.3473095238144
 30
0.0
 11
-223.6974776741602
 21
-249.7664505300394
 31
0.0
  0
LINE
  5
2D9
102
{ACAD_REACTORS
330
3F2
330
3F3
102
}
330
71
100
AcDbEntity
  8
0
  6
Continuous
 62
     2
100
AcDbLine
 10
-225.0000073049277
 20
-248.2935000000032
 30
0.0
 11
-223.6974776741602
 21
-249.7664505300394
 31
0.0
  0
LINE
  5
2DA
102
{ACAD_REACTORS
330
3F2
330
3F3
102
}
330
71
100
AcDbEntity
  8
0
  6
Continuous
 62
     2
100
AcDbLine
 10
-222.3949480433938
 20
-248.2935000000032
 30
0.0
 11
-220.9922238256466
 21
-248.2935000000032
 31
0.0
  0
LINE
  5
2DB
102
{ACAD_REACTORS
330
3F2
330
3F3
102
}
330
71
100
AcDbEntity
  8
0
  6
Continuous
 62
     2
100
AcDbLine
 10
-223.6927065033523
 20
-251.3473095238144
 30
0.0
 11
-222.9961155652866
 21
-250.5595777385207
 31
0.0
  0
LINE
  5
2DC
102
{ACAD_REACTORS
330
3F2
330
3F3
102
}
330
71
100
AcDbEntity
  8
0
  6
Continuous
 62
     2
100
AcDbLine
 10
-223.6927065033523
 20
-251.3473095238144
 30
0.0
 11
-225.0954307211005
 21
-251.3473095238144
 31
0.0
  0
LINE
  5
2DD
102
{ACAD_REACTORS
330
3F4
330
3F5
102
}
330
71
100
AcDbEntity
  8
0
  6
Continuous
 62
     2
100
AcDbLine
 10
-225.2147099913174
 20
-251.3473095238144
 30
0.0
 11
-226.4552144015703
 21
-251.3473095238144
 31
0.0
  0
LINE
  5
2DE
102
{ACAD_REACTORS
330
3F6
330
3F7
102
}
330
71
100
AcDbEntity
  8
0
  6
Continuous
 62
     2
100
AcDbLine
 10
-227.3231940097254
 20
-253.4849761904642
 30
0.0
 11
-227.6233592469155
 21
-252.7171612244775
 31
0.0
  0
LINE
  5
2DF
102
{ACAD_REACTORS
330
3F6
330
3F7
102
}
330
71
100
AcDbEntity
  8
0
  6
Continuous
 62
     2
100
AcDbLine
 10
-227.9235244841079
 20
-253.4849761904642
 30
0.0
 11
-227.3231940097254
 21
-253.4849761904642
 31
0.0
  0
LINE
  5
2E0
102
{ACAD_REACTORS
330
3F6
330
3F7
102
}
330
71
100
AcDbEntity
  8
0
  6
Continuous
 62
     2
100
AcDbLine
 10
-229.6415644989817
 20
-254.7064999999887
 30
0.0
 11
-228.4010600887287
 21
-254.7064999999887
 31
0.0
  0
LINE
  5
2E1
102
{ACAD_REACTORS
330
3F6
330
3F7
102
}
330
71
100
AcDbEntity
  8
0
  6
Continuous
 62
     2
100
AcDbLine
 10
-228.2436114520424
 20
-251.6526904761776
 30
0.0
 11
-227.0031070417897
 21
-251.6526904761776
 31
0.0
  0
LINE
  5
2E2
102
{ACAD_REACTORS
330
3F6
330
3F7
102
}
330
71
100
AcDbEntity
  8
0
  6
Continuous
 62
     2
100
AcDbLine
 10
-227.0031070417897
 20
-251.6526904761776
 30
0.0
 11
-225.6051539948494
 21
-254.7064999999887
 31
0.0
  0
LINE
  5
2E3
102
{ACAD_REACTORS
330
3F6
330
3F7
102
}
330
71
100
AcDbEntity
  8
0
  6
Continuous
 62
     2
100
AcDbLine
 10
-226.8456584051033
 20
-254.7064999999887
 30
0.0
 11
-227.0571384585791
 21
-254.1655394557708
 31
0.0
  0
LINE
  5
2E4
102
{ACAD_REACTORS
330
3F8
330
3F9
102
}
330
71
100
AcDbEntity
  8
0
  6
Continuous
 62
     2
100
AcDbLine
 10
-230.9879776006893
 20
-254.7064999999887
 30
0.0
 11
-229.7951848985228
 21
-254.7064999999887
 31
0.0
  0
LINE
  5
2E5
102
{ACAD_REACTORS
330
3F8
330
3F9
102
}
330
71
100
AcDbEntity
  8
0
  6
Continuous
 62
     2
100
AcDbLine
 10
-230.9879776006893
 20
-252.4379557823012
 30
0.0
 11
-230.9879776006893
 21
-254.7064999999887
 31
0.0
  0
LINE
  5
2E6
102
{ACAD_REACTORS
330
3F8
330
3F9
102
}
330
71
100
AcDbEntity
  8
0
  6
Continuous
 62
     2
100
AcDbLine
 10
-231.7990766381639
 20
-251.6526904761776
 30
0.0
 11
-231.7990766381639
 21
-252.4379557823012
 31
0.0
  0
LINE
  5
2E7
102
{ACAD_REACTORS
330
3FA
330
3FB
102
}
330
71
100
AcDbEntity
  8
0
  6
Continuous
 62
     2
100
AcDbLine
 10
-230.3198627565913
 20
-251.3473095238144
 30
0.0
 11
-229.1270700544248
 21
-251.3473095238144
 31
0.0
  0
LINE
  5
2E8
102
{ACAD_REACTORS
330
3FA
330
3FB
102
}
330
71
100
AcDbEntity
  8
0
  6
Continuous
 62
     2
100
AcDbLine
 10
-227.8865656441708
 20
-249.6022755102084
 30
0.0
 11
-229.1270700544248
 21
-248.2935000000032
 31
0.0
  0
LINE
  5
2E9
102
{ACAD_REACTORS
330
3FA
330
3FB
102
}
330
71
100
AcDbEntity
  8
0
  6
Continuous
 62
     2
100
AcDbLine
 10
-226.6937729420042
 20
-248.2935000000032
 30
0.0
 11
-227.8865656441708
 21
-248.2935000000032
 31
0.0
  0
LINE
  5
2EA
102
{ACAD_REACTORS
330
3FA
330
3FB
102
}
330
71
100
AcDbEntity
  8
0
  6
Continuous
 62
     2
100
AcDbLine
 10
-226.6937729420042
 20
-251.3473095238144
 30
0.0
 11
-226.6937729420042
 21
-248.2935000000032
 31
0.0
  0
LINE
  5
2EB
102
{ACAD_REACTORS
330
3FA
330
3FB
102
}
330
71
100
AcDbEntity
  8
0
  6
Continuous
 62
     2
100
AcDbLine
 10
-227.8865656441708
 20
-251.3473095238144
 30
0.0
 11
-226.6937729420042
 21
-251.3473095238144
 31
0.0
  0
LINE
  5
2EC
102
{ACAD_REACTORS
330
3FA
330
3FB
102
}
330
71
100
AcDbEntity
  8
0
  6
Continuous
 62
     2
100
AcDbLine
 10
-229.1270700544248
 20
-250.0385340136097
 30
0.0
 11
-227.8865656441708
 21
-251.3473095238144
 31
0.0
  0
LINE
  5
2ED
102
{ACAD_REACTORS
330
3FC
330
3FD
102
}
330
71
100
AcDbEntity
  8
0
  6
Continuous
 62
     2
100
AcDbLine
 10
-233.1350044645905
 20
-252.9614659863827
 30
0.0
 11
-234.3755088748434
 21
-251.6526904761776
 31
0.0
  0
LINE
  5
2EE
102
{ACAD_REACTORS
330
3FC
330
3FD
102
}
330
71
100
AcDbEntity
  8
0
  6
Continuous
 62
     2
100
AcDbLine
 10
-233.1350044645905
 20
-251.6526904761776
 30
0.0
 11
-233.1350044645905
 21
-252.9614659863827
 31
0.0
  0
LINE
  5
2EF
102
{ACAD_REACTORS
330
3FC
330
3FD
102
}
330
71
100
AcDbEntity
  8
0
  6
Continuous
 62
     2
100
AcDbLine
 10
-231.9422117624241
 20
-251.6526904761776
 30
0.0
 11
-233.1350044645905
 21
-251.6526904761776
 31
0.0
  0
LINE
  5
2F0
102
{ACAD_REACTORS
330
3FC
330
3FD
102
}
330
71
100
AcDbEntity
  8
0
  6
Continuous
 62
     2
100
AcDbLine
 10
-231.9422117624241
 20
-254.7064999999887
 30
0.0
 11
-231.9422117624241
 21
-251.6526904761776
 31
0.0
  0
LINE
  5
2F1
102
{ACAD_REACTORS
330
3FC
330
3FD
102
}
330
71
100
AcDbEntity
  8
0
  6
Continuous
 62
     2
100
AcDbLine
 10
-234.3755088748434
 20
-253.3977244897841
 30
0.0
 11
-233.1350044645905
 21
-254.7064999999887
 31
0.0
  0
LINE
  5
2F2
102
{ACAD_REACTORS
330
3FC
330
3FD
102
}
330
71
100
AcDbEntity
  8
0
  6
Continuous
 62
     2
100
AcDbLine
 10
-234.3755088748434
 20
-254.7064999999887
 30
0.0
 11
-234.3755088748434
 21
-253.3977244897841
 31
0.0
  0
LINE
  5
2F3
102
{ACAD_REACTORS
330
3EC
330
3ED
102
}
330
71
100
AcDbEntity
  8
0
  6
Continuous
 62
     2
100
AcDbLine
 10
-231.8943491234519
 20
-248.9915136054462
 30
0.0
 11
-230.5584212970242
 21
-248.9915136054462
 31
0.0
  0
LINE
  5
2F4
102
{ACAD_REACTORS
330
3EC
330
3ED
102
}
330
71
100
AcDbEntity
  8
0
  6
Continuous
 62
     2
100
AcDbLine
 10
-231.8943491234519
 20
-250.6492959183719
 30
0.0
 11
-231.8943491234519
 21
-250.1694115646302
 31
0.0
  0
LINE
  5
2F5
102
{ACAD_REACTORS
330
3EC
330
3ED
102
}
330
71
100
AcDbEntity
  8
0
  6
Continuous
 62
     2
100
AcDbLine
 10
-230.5584212970242
 20
-250.6492959183719
 30
0.0
 11
-231.8943491234519
 21
-250.6492959183719
 31
0.0
  0
LINE
  5
2F6
102
{ACAD_REACTORS
330
3EC
330
3ED
102
}
330
71
100
AcDbEntity
  8
0
  6
Continuous
 62
     2
100
AcDbLine
 10
-230.5584212970242
 20
-251.3473095238144
 30
0.0
 11
-230.5584212970242
 21
-250.6492959183719
 31
0.0
  0
LINE
  5
2F7
102
{ACAD_REACTORS
330
3EC
330
3ED
102
}
330
71
100
AcDbEntity
  8
0
  6
Continuous
 62
     2
100
AcDbLine
 10
-233.7087410208052
 20
-251.3473095238144
 30
0.0
 11
-230.5584212970242
 21
-251.3473095238144
 31
0.0
  0
LINE
  5
2F8
102
{ACAD_REACTORS
330
3EC
330
3ED
102
}
330
71
100
AcDbEntity
  8
0
  6
Continuous
 62
     2
100
AcDbLine
 10
-233.7087410208052
 20
-248.2935000000032
 30
0.0
 11
-230.5584212970242
 21
-248.2935000000032
 31
0.0
  0
LINE
  5
2F9
102
{ACAD_REACTORS
330
3EC
330
3ED
102
}
330
71
100
AcDbEntity
  8
0
  6
Continuous
 62
     2
100
AcDbLine
 10
-230.5584212970242
 20
-248.9915136054462
 30
0.0
 11
-230.5584212970242
 21
-248.2935000000032
 31
0.0
  0
LINE
  5
2FA
102
{ACAD_REACTORS
330
3FE
330
3FF
102
}
330
71
100
AcDbEntity
  8
0
  6
Continuous
 62
     2
100
AcDbLine
 10
-236.5700965159452
 20
-249.3623333333378
 30
0.0
 11
-236.5700965159452
 21
-248.2935000000032
 31
0.0
  0
LINE
  5
2FB
102
{ACAD_REACTORS
330
3FE
330
3FF
102
}
330
71
100
AcDbEntity
  8
0
  6
Continuous
 62
     2
100
AcDbLine
 10
-236.5700965159452
 20
-248.2935000000032
 30
0.0
 11
-235.3773038137788
 21
-248.2935000000032
 31
0.0
  0
LINE
  5
2FC
102
{ACAD_REACTORS
330
3FE
330
3FF
102
}
330
71
100
AcDbEntity
  8
0
  6
Continuous
 62
     2
100
AcDbLine
 10
-236.5700965159452
 20
-250.2130374149706
 30
0.0
 11
-237.6197540938527
 21
-250.2130374149706
 31
0.0
  0
LINE
  5
2FD
102
{ACAD_REACTORS
330
3FE
330
3FF
102
}
330
71
100
AcDbEntity
  8
0
  6
Continuous
 62
     2
100
AcDbLine
 10
-237.6197540938527
 20
-250.2130374149706
 30
0.0
 11
-237.6197540938527
 21
-251.3473095238144
 31
0.0
  0
LINE
  5
2FE
102
{ACAD_REACTORS
330
3FE
330
3FF
102
}
330
71
100
AcDbEntity
  8
0
  6
Continuous
 62
     2
100
AcDbLine
 10
-238.8125467960193
 20
-248.2935000000032
 30
0.0
 11
-238.8125467960193
 21
-251.3473095238144
 31
0.0
  0
LINE
  5
2FF
102
{ACAD_REACTORS
330
3F0
330
3F1
102
}
330
71
100
AcDbEntity
  8
0
  6
Continuous
 62
     2
100
AcDbLine
 10
-240.7687268275729
 20
-249.6623334947855
 30
0.0
 11
-240.7687268275729
 21
-248.9566058454433
 31
0.0
  0
LINE
  5
300
102
{ACAD_REACTORS
330
3F0
330
3F1
102
}
330
71
100
AcDbEntity
  8
0
  6
Continuous
 62
     2
100
AcDbLine
 10
-242.009231237827
 20
-251.3473095238144
 30
0.0
 11
-240.7687268275729
 21
-251.3473095238144
 31
0.0
  0
LINE
  5
301
102
{ACAD_REACTORS
330
3F0
330
3F1
102
}
330
71
100
AcDbEntity
  8
0
  6
Continuous
 62
     2
100
AcDbLine
 10
-240.7687268275729
 20
-251.3473095238144
 30
0.0
 11
-240.7687268275729
 21
-250.4042312826706
 31
0.0
  0
LINE
  5
302
102
{ACAD_REACTORS
330
3EA
330
3EB
102
}
330
71
100
AcDbEntity
  8
0
  6
Continuous
 62
     2
100
AcDbLine
 10
-246.3141770870384
 20
-253.9939444444318
 30
0.0
 11
-247.790010348048
 21
-253.9939444444318
 31
0.0
  0
LINE
  5
303
102
{ACAD_REACTORS
330
3EA
330
3EB
102
}
330
71
100
AcDbEntity
  8
0
  6
Continuous
 62
     2
100
AcDbLine
 10
-248.8081496401773
 20
-248.7177446154052
 30
0.0
 11
-248.8081496401773
 21
-254.2822553846054
 31
0.0
  0
LINE
  5
304
102
{ACAD_REACTORS
330
3EA
330
3EB
102
}
330
71
100
AcDbEntity
  8
0
  6
Continuous
 62
     2
100
AcDbLine
 10
-248.3839050247945
 20
-248.2935000000214
 30
0.0
 11
-242.9105929340777
 21
-248.2935000000214
 31
0.0
  0
LINE
  5
305
102
{ACAD_REACTORS
330
3EA
330
3EB
102
}
330
71
100
AcDbEntity
  8
0
  6
Continuous
 62
     2
100
AcDbLine
 10
-242.4863483186938
 20
-248.7177446154052
 30
0.0
 11
-242.4863483186938
 21
-254.2822553846054
 31
0.0
  0
LINE
  5
306
102
{ACAD_REACTORS
330
3EA
330
3EB
102
}
330
71
100
AcDbEntity
  8
0
  6
Continuous
 62
     2
100
AcDbLine
 10
-242.9105929340777
 20
-254.7064999999887
 30
0.0
 11
-248.3839050247945
 21
-254.7064999999887
 31
0.0
  0
LINE
  5
307
102
{ACAD_REACTORS
330
3EA
330
3EB
102
}
330
71
100
AcDbEntity
  8
0
  6
Continuous
 62
     2
100
AcDbLine
 10
-245.9984601639618
 20
-253.6782275213551
 30
0.0
 11
-245.9984601639618
 21
-252.1474565898235
 31
0.0
  0
LINE
  5
308
102
{ACAD_REACTORS
330
3EA
330
3EB
102
}
330
71
100
AcDbEntity
  8
0
  6
Continuous
 62
     2
100
AcDbLine
 10
-245.9984601639618
 20
-249.9257970976985
 30
0.0
 11
-245.9984601639618
 21
-249.321772478638
 31
0.0
  0
LINE
  5
309
102
{ACAD_REACTORS
330
3EA
330
3EB
102
}
330
71
100
AcDbEntity
  8
0
  6
Continuous
 62
     2
100
AcDbLine
 10
-247.790010348048
 20
-249.0060555555618
 30
0.0
 11
-246.3141770870384
 21
-249.0060555555618
 31
0.0
  0
LINE
  5
30A
102
{ACAD_REACTORS
330
3EA
330
3EB
102
}
330
71
100
AcDbEntity
  8
0
  6
Continuous
 62
     2
100
AcDbLine
 10
-248.1057272711237
 20
-249.321772478638
 30
0.0
 11
-248.1057272711237
 21
-253.6782275213551
 31
0.0
  0
LINE
  5
30B
102
{ACAD_REACTORS
330
3F0
330
3F1
102
}
330
71
100
AcDbEntity
  8
0
  6
Continuous
 62
     2
100
AcDbLine
 10
-240.7687268275729
 20
-250.4042312826706
 30
0.0
 11
-240.0099592397926
 21
-250.4042312826706
 31
0.0
  0
LINE
  5
30C
102
{ACAD_REACTORS
330
3F0
330
3F1
102
}
330
71
100
AcDbEntity
  8
0
  6
Continuous
 62
     2
100
AcDbLine
 10
-242.009231237827
 20
-248.2935000000032
 30
0.0
 11
-240.0099592397926
 21
-248.2935000000032
 31
0.0
  0
LINE
  5
30D
102
{ACAD_REACTORS
330
3F0
330
3F1
102
}
330
71
100
AcDbEntity
  8
0
  6
Continuous
 62
     2
100
AcDbLine
 10
-242.009231237827
 20
-248.2935000000032
 30
0.0
 11
-242.009231237827
 21
-251.3473095238144
 31
0.0
  0
LINE
  5
30E
102
{ACAD_REACTORS
330
3F0
330
3F1
102
}
330
71
100
AcDbEntity
  8
0
  6
Continuous
 62
     2
100
AcDbLine
 10
-240.7687268275729
 20
-249.6623334947855
 30
0.0
 11
-240.451431766031
 21
-249.6623334947855
 31
0.0
  0
LINE
  5
30F
102
{ACAD_REACTORS
330
3F0
330
3F1
102
}
330
71
100
AcDbEntity
  8
0
  6
Continuous
 62
     2
100
AcDbLine
 10
-240.7687268275729
 20
-248.9566058454433
 30
0.0
 11
-240.451431766031
 21
-248.9566058454433
 31
0.0
  0
LINE
  5
310
102
{ACAD_REACTORS
330
3FE
330
3FF
102
}
330
71
100
AcDbEntity
  8
0
  6
Continuous
 62
     2
100
AcDbLine
 10
-237.6197540938527
 20
-249.3623333333378
 30
0.0
 11
-236.5700965159452
 21
-249.3623333333378
 31
0.0
  0
LINE
  5
311
102
{ACAD_REACTORS
330
3FE
330
3FF
102
}
330
71
100
AcDbEntity
  8
0
  6
Continuous
 62
     2
100
AcDbLine
 10
-237.6197540938527
 20
-248.2935000000032
 30
0.0
 11
-237.6197540938527
 21
-249.3623333333378
 31
0.0
  0
LINE
  5
312
102
{ACAD_REACTORS
330
3FE
330
3FF
102
}
330
71
100
AcDbEntity
  8
0
  6
Continuous
 62
     2
100
AcDbLine
 10
-238.8125467960193
 20
-248.2935000000032
 30
0.0
 11
-237.6197540938527
 21
-248.2935000000032
 31
0.0
  0
LINE
  5
313
102
{ACAD_REACTORS
330
3FE
330
3FF
102
}
330
71
100
AcDbEntity
  8
0
  6
Continuous
 62
     2
100
AcDbLine
 10
-237.6197540938527
 20
-251.3473095238144
 30
0.0
 11
-238.8125467960193
 21
-251.3473095238144
 31
0.0
  0
LINE
  5
314
102
{ACAD_REACTORS
330
3FE
330
3FF
102
}
330
71
100
AcDbEntity
  8
0
  6
Continuous
 62
     2
100
AcDbLine
 10
-236.5700965159452
 20
-251.3473095238144
 30
0.0
 11
-236.5700965159452
 21
-250.2130374149706
 31
0.0
  0
LINE
  5
315
102
{ACAD_REACTORS
330
3FE
330
3FF
102
}
330
71
100
AcDbEntity
  8
0
  6
Continuous
 62
     2
100
AcDbLine
 10
-235.3773038137788
 20
-251.3473095238144
 30
0.0
 11
-236.5700965159452
 21
-251.3473095238144
 31
0.0
  0
LINE
  5
316
102
{ACAD_REACTORS
330
3FE
330
3FF
102
}
330
71
100
AcDbEntity
  8
0
  6
Continuous
 62
     2
100
AcDbLine
 10
-235.3773038137788
 20
-248.2935000000032
 30
0.0
 11
-235.3773038137788
 21
-251.3473095238144
 31
0.0
  0
LINE
  5
317
102
{ACAD_REACTORS
330
3EC
330
3ED
102
}
330
71
100
AcDbEntity
  8
0
  6
Continuous
 62
     2
100
AcDbLine
 10
-231.8943491234519
 20
-250.1694115646302
 30
0.0
 11
-230.5584212970242
 21
-250.1694115646302
 31
0.0
  0
LINE
  5
318
102
{ACAD_REACTORS
330
3EC
330
3ED
102
}
330
71
100
AcDbEntity
  8
0
  6
Continuous
 62
     2
100
AcDbLine
 10
-230.5584212970242
 20
-250.1694115646302
 30
0.0
 11
-230.5584212970242
 21
-249.4713979591879
 31
0.0
  0
LINE
  5
319
102
{ACAD_REACTORS
330
3EC
330
3ED
102
}
330
71
100
AcDbEntity
  8
0
  6
Continuous
 62
     2
100
AcDbLine
 10
-230.5584212970242
 20
-249.4713979591879
 30
0.0
 11
-231.8943491234519
 21
-249.4713979591879
 31
0.0
  0
LINE
  5
31A
102
{ACAD_REACTORS
330
3EC
330
3ED
102
}
330
71
100
AcDbEntity
  8
0
  6
Continuous
 62
     2
100
AcDbLine
 10
-231.8943491234519
 20
-249.4713979591879
 30
0.0
 11
-231.8943491234519
 21
-248.9915136054462
 31
0.0
  0
LINE
  5
31B
102
{ACAD_REACTORS
330
3FC
330
3FD
102
}
330
71
100
AcDbEntity
  8
0
  6
Continuous
 62
     2
100
AcDbLine
 10
-235.568301577011
 20
-254.7064999999887
 30
0.0
 11
-234.3755088748434
 21
-254.7064999999887
 31
0.0
  0
LINE
  5
31C
102
{ACAD_REACTORS
330
3FC
330
3FD
102
}
330
71
100
AcDbEntity
  8
0
  6
Continuous
 62
     2
100
AcDbLine
 10
-233.1350044645905
 20
-254.7064999999887
 30
0.0
 11
-231.9422117624241
 21
-254.7064999999887
 31
0.0
  0
LINE
  5
31D
102
{ACAD_REACTORS
330
3FC
330
3FD
102
}
330
71
100
AcDbEntity
  8
0
  6
Continuous
 62
     2
100
AcDbLine
 10
-234.3755088748434
 20
-251.6526904761776
 30
0.0
 11
-235.568301577011
 21
-251.6526904761776
 31
0.0
  0
LINE
  5
31E
102
{ACAD_REACTORS
330
3FC
330
3FD
102
}
330
71
100
AcDbEntity
  8
0
  6
Continuous
 62
     2
100
AcDbLine
 10
-235.568301577011
 20
-251.6526904761776
 30
0.0
 11
-235.568301577011
 21
-254.7064999999887
 31
0.0
  0
LINE
  5
31F
102
{ACAD_REACTORS
330
3FA
330
3FB
102
}
330
71
100
AcDbEntity
  8
0
  6
Continuous
 62
     2
100
AcDbLine
 10
-227.8865656441708
 20
-248.2935000000032
 30
0.0
 11
-227.8865656441708
 21
-249.6022755102084
 31
0.0
  0
LINE
  5
320
102
{ACAD_REACTORS
330
3FA
330
3FB
102
}
330
71
100
AcDbEntity
  8
0
  6
Continuous
 62
     2
100
AcDbLine
 10
-229.1270700544248
 20
-248.2935000000032
 30
0.0
 11
-230.3198627565913
 21
-248.2935000000032
 31
0.0
  0
LINE
  5
321
102
{ACAD_REACTORS
330
3FA
330
3FB
102
}
330
71
100
AcDbEntity
  8
0
  6
Continuous
 62
     2
100
AcDbLine
 10
-230.3198627565913
 20
-248.2935000000032
 30
0.0
 11
-230.3198627565913
 21
-251.3473095238144
 31
0.0
  0
LINE
  5
322
102
{ACAD_REACTORS
330
3FA
330
3FB
102
}
330
71
100
AcDbEntity
  8
0
  6
Continuous
 62
     2
100
AcDbLine
 10
-229.1270700544248
 20
-251.3473095238144
 30
0.0
 11
-229.1270700544248
 21
-250.0385340136097
 31
0.0
  0
LINE
  5
323
102
{ACAD_REACTORS
330
3F8
330
3F9
102
}
330
71
100
AcDbEntity
  8
0
  6
Continuous
 62
     2
100
AcDbLine
 10
-229.7951848985228
 20
-254.7064999999887
 30
0.0
 11
-229.7951848985228
 21
-252.4379557823012
 31
0.0
  0
LINE
  5
324
102
{ACAD_REACTORS
330
3F8
330
3F9
102
}
330
71
100
AcDbEntity
  8
0
  6
Continuous
 62
     2
100
AcDbLine
 10
-229.7951848985228
 20
-252.4379557823012
 30
0.0
 11
-228.9840858610503
 21
-252.4379557823012
 31
0.0
  0
LINE
  5
325
102
{ACAD_REACTORS
330
3F8
330
3F9
102
}
330
71
100
AcDbEntity
  8
0
  6
Continuous
 62
     2
100
AcDbLine
 10
-228.9840858610503
 20
-252.4379557823012
 30
0.0
 11
-228.9840858610503
 21
-251.6526904761776
 31
0.0
  0
LINE
  5
326
102
{ACAD_REACTORS
330
3F8
330
3F9
102
}
330
71
100
AcDbEntity
  8
0
  6
Continuous
 62
     2
100
AcDbLine
 10
-228.9840858610503
 20
-251.6526904761776
 30
0.0
 11
-231.7990766381639
 21
-251.6526904761776
 31
0.0
  0
LINE
  5
327
102
{ACAD_REACTORS
330
3F8
330
3F9
102
}
330
71
100
AcDbEntity
  8
0
  6
Continuous
 62
     2
100
AcDbLine
 10
-231.7990766381639
 20
-252.4379557823012
 30
0.0
 11
-230.9879776006893
 21
-252.4379557823012
 31
0.0
  0
LINE
  5
328
102
{ACAD_REACTORS
330
3F6
330
3F7
102
}
330
71
100
AcDbEntity
  8
0
  6
Continuous
 62
     2
100
AcDbLine
 10
-228.1895800352529
 20
-254.1655394557708
 30
0.0
 11
-227.0571384585791
 21
-254.1655394557708
 31
0.0
  0
LINE
  5
329
102
{ACAD_REACTORS
330
3F6
330
3F7
102
}
330
71
100
AcDbEntity
  8
0
  6
Continuous
 62
     2
100
AcDbLine
 10
-225.6051539948494
 20
-254.7064999999887
 30
0.0
 11
-226.8456584051033
 21
-254.7064999999887
 31
0.0
  0
LINE
  5
32A
102
{ACAD_REACTORS
330
3F6
330
3F7
102
}
330
71
100
AcDbEntity
  8
0
  6
Continuous
 62
     2
100
AcDbLine
 10
-228.2436114520424
 20
-251.6526904761776
 30
0.0
 11
-229.6415644989817
 21
-254.7064999999887
 31
0.0
  0
LINE
  5
32B
102
{ACAD_REACTORS
330
3F6
330
3F7
102
}
330
71
100
AcDbEntity
  8
0
  6
Continuous
 62
     2
100
AcDbLine
 10
-228.4010600887287
 20
-254.7064999999887
 30
0.0
 11
-228.1895800352529
 21
-254.1655394557708
 31
0.0
  0
LINE
  5
32C
102
{ACAD_REACTORS
330
3F6
330
3F7
102
}
330
71
100
AcDbEntity
  8
0
  6
Continuous
 62
     2
100
AcDbLine
 10
-227.9235244841079
 20
-253.4849761904642
 30
0.0
 11
-227.6233592469155
 21
-252.7171612244775
 31
0.0
  0
LINE
  5
32D
102
{ACAD_REACTORS
330
3F4
330
3F5
102
}
330
71
100
AcDbEntity
  8
0
  6
Continuous
 62
     2
100
AcDbLine
 10
-226.4552144015703
 20
-251.3473095238144
 30
0.0
 11
-226.4552144015703
 21
-248.2935000000032
 31
0.0
  0
LINE
  5
32E
102
{ACAD_REACTORS
330
3F4
330
3F5
102
}
330
71
100
AcDbEntity
  8
0
  6
Continuous
 62
     2
100
AcDbLine
 10
-225.2147099913174
 20
-248.2935000000032
 30
0.0
 11
-225.2147099913174
 21
-251.3473095238144
 31
0.0
  0
LINE
  5
32F
102
{ACAD_REACTORS
330
3F4
330
3F5
102
}
330
71
100
AcDbEntity
  8
0
  6
Continuous
 62
     2
100
AcDbLine
 10
-226.4552144015703
 20
-248.2935000000032
 30
0.0
 11
-225.2147099913174
 21
-248.2935000000032
 31
0.0
  0
LINE
  5
330
102
{ACAD_REACTORS
330
3F2
330
3F3
102
}
330
71
100
AcDbEntity
  8
0
  6
Continuous
 62
     2
100
AcDbLine
 10
-222.9961155652866
 20
-250.5595777385207
 30
0.0
 11
-222.2995246272211
 21
-251.3473095238144
 31
0.0
  0
LINE
  5
331
102
{ACAD_REACTORS
330
3F2
330
3F3
102
}
330
71
100
AcDbEntity
  8
0
  6
Continuous
 62
     2
100
AcDbLine
 10
-222.2995246272211
 20
-251.3473095238144
 30
0.0
 11
-220.8968004094728
 21
-251.3473095238144
 31
0.0
  0
LINE
  5
332
102
{ACAD_REACTORS
330
3F2
330
3F3
102
}
330
71
100
AcDbEntity
  8
0
  6
Continuous
 62
     2
100
AcDbLine
 10
-222.2947534564131
 20
-249.7664505300394
 30
0.0
 11
-220.8968004094728
 21
-251.3473095238144
 31
0.0
  0
LINE
  5
333
102
{ACAD_REACTORS
330
3F2
330
3F3
102
}
330
71
100
AcDbEntity
  8
0
  6
Continuous
 62
     2
100
AcDbLine
 10
-222.2947534564131
 20
-249.7664505300394
 30
0.0
 11
-220.9922238256466
 21
-248.2935000000032
 31
0.0
  0
LINE
  5
334
102
{ACAD_REACTORS
330
3F2
330
3F3
102
}
330
71
100
AcDbEntity
  8
0
  6
Continuous
 62
     2
100
AcDbLine
 10
-222.9961155652866
 20
-248.9733233215587
 30
0.0
 11
-222.3949480433938
 21
-248.2935000000032
 31
0.0
  0
LINE
  5
335
102
{ACAD_REACTORS
330
3F2
330
3F3
102
}
330
71
100
AcDbEntity
  8
0
  6
Continuous
 62
     2
100
AcDbLine
 10
-223.5972830871784
 20
-248.2935000000032
 30
0.0
 11
-222.9961155652866
 21
-248.9733233215587
 31
0.0
  0
LINE
  5
336
102
{ACAD_REACTORS
330
3F2
330
3F3
102
}
330
71
100
AcDbEntity
  8
0
  6
Continuous
 62
     2
100
AcDbLine
 10
-223.5972830871784
 20
-248.2935000000032
 30
0.0
 11
-225.0000073049277
 21
-248.2935000000032
 31
0.0
  0
LINE
  5
337
102
{ACAD_REACTORS
330
3E8
330
3E9
102
}
330
71
100
AcDbEntity
  8
0
  6
Continuous
 62
     2
100
AcDbLine
 10
-222.9006921491139
 20
-254.7064999999887
 30
0.0
 11
-221.7078994469462
 21
-254.7064999999887
 31
0.0
  0
LINE
  5
338
102
{ACAD_REACTORS
330
3E8
330
3E9
102
}
330
71
100
AcDbEntity
  8
0
  6
Continuous
 62
     2
100
AcDbLine
 10
-221.7078994469462
 20
-254.7064999999887
 30
0.0
 11
-221.7078994469462
 21
-252.4379557823012
 31
0.0
  0
LINE
  5
339
102
{ACAD_REACTORS
330
3E8
330
3E9
102
}
330
71
100
AcDbEntity
  8
0
  6
Continuous
 62
     2
100
AcDbLine
 10
-221.7078994469462
 20
-252.4379557823012
 30
0.0
 11
-220.8968004094728
 21
-252.4379557823012
 31
0.0
  0
LINE
  5
33A
102
{ACAD_REACTORS
330
3E8
330
3E9
102
}
330
71
100
AcDbEntity
  8
0
  6
Continuous
 62
     2
100
AcDbLine
 10
-220.8968004094728
 20
-252.4379557823012
 30
0.0
 11
-220.8968004094728
 21
-251.6526904761776
 31
0.0
  0
LINE
  5
33B
102
{ACAD_REACTORS
330
3E8
330
3E9
102
}
330
71
100
AcDbEntity
  8
0
  6
Continuous
 62
     2
100
AcDbLine
 10
-224.2817459281015
 20
-251.6526904761781
 30
0.0
 11
-220.8968004094728
 21
-251.6526904761776
 31
0.0
  0
LINE
  5
33C
102
{ACAD_REACTORS
330
3E8
330
3E9
102
}
330
71
100
AcDbEntity
  8
0
  6
Continuous
 62
     2
100
AcDbLine
 10
-222.9006921491139
 20
-252.4379557823012
 30
0.0
 11
-222.9006921491139
 21
-254.7064999999887
 31
0.0
  0
LINE
  5
33D
102
{ACAD_REACTORS
330
3EA
330
3EB
102
}
330
71
100
AcDbEntity
  8
0
  6
Continuous
 62
     2
100
AcDbLine
 10
-245.5301785845931
 20
-252.7276198504242
 30
0.0
 11
-245.5301785845931
 21
-252.1457684437291
 31
0.0
  0
LINE
  5
33E
102
{ACAD_REACTORS
330
3EA
330
3EB
102
}
330
71
100
AcDbEntity
  8
0
  6
Continuous
 62
     2
100
AcDbLine
 10
-245.5301785845931
 20
-249.9274852437929
 30
0.0
 11
-245.5301785845931
 21
-249.3219499552861
 31
0.0
  0
LINE
  5
33F
330
71
100
AcDbEntity
  8
1
  6
Continuous
 62
     6
100
AcDbLine
 10
-266.9999999999899
 20
-262.000000000005
 30
0.0
 11
-253.0448045267399
 21
-262.0000000000051
 31
0.0
  0
LINE
  5
340
330
71
100
AcDbEntity
  8
1
  6
Continuous
 62
     6
100
AcDbLine
 10
-316.9999999999901
 20
-262.000000000005
 30
0.0
 11
-322.0448045267399
 21
-262.000000000005
 31
0.0
  0
LINE
  5
341
330
71
100
AcDbEntity
  8
1
  6
Continuous
 62
     6
100
AcDbLine
 10
-166.9999999999899
 20
-262.000000000005
 30
0.0
 11
-123.4999999999899
 21
-262.000000000005
 31
0.0
  0
LINE
  5
342
330
71
100
AcDbEntity
  8
1
  6
Continuous
 62
     6
100
AcDbLine
 10
-216.9999999999899
 20
-262.000000000005
 30
0.0
 11
-234.8448045267399
 21
-262.000000000005
 31
0.0
  0
LINE
  5
343
330
71
100
AcDbEntity
  8
1
  6
Continuous
 62
     2
100
AcDbLine
 10
-123.4999999999899
 20
-262.000000000005
 30
0.0
 11
-118.4999999999909
 21
-262.000000000005
 31
0.0
  0
LINE
  5
344
330
71
100
AcDbEntity
  8
1
  6
Continuous
 62
     2
100
AcDbLine
 10
-123.4999999999899
 20
-262.000000000005
 30
0.0
 11
-123.4999999999899
 21
-267.0000000000051
 31
0.0
  0
LINE
  5
345
330
71
100
AcDbEntity
  8
1
  6
Continuous
 62
     6
100
AcDbLine
 10
-253.0448045267399
 20
-245.000000000005
 30
0.0
 11
-216.64480452674
 21
-245.000000000005
 31
0.0
  0
LINE
  5
346
330
71
100
AcDbEntity
  8
1
  6
Continuous
 62
     2
100
AcDbLine
 10
-118.4999999999909
 20
-267.0000000000051
 30
0.0
 11
-118.4999999999909
 21
-262.000000000005
 31
0.0
  0
LINE
  5
347
330
71
100
AcDbEntity
  8
1
  6
Continuous
 62
     2
100
AcDbLine
 10
-118.4999999999909
 20
-267.0000000000051
 30
0.0
 11
-123.4999999999899
 21
-267.0000000000051
 31
0.0
  0
LINE
  5
348
330
71
100
AcDbEntity
  8
1
  6
Continuous
 62
     2
100
AcDbLine
 10
-123.4999999999899
 20
-267.0000000000051
 30
0.0
 11
-166.9999999999899
 21
-267.0000000000051
 31
0.0
  0
LINE
  5
349
330
71
100
AcDbEntity
  8
1
  6
Continuous
 62
     6
100
AcDbLine
 10
-123.4999999999882
 20
-245.000000000005
 30
0.0
 11
-123.499999999989
 21
-212.0000000000049
 31
0.0
  0
LINE
  5
34A
330
71
100
AcDbEntity
  8
1
  6
Continuous
 62
     2
100
AcDbLine
 10
-118.4999999999909
 20
-57.000000000005
 30
0.0
 11
-266.9999999999899
 21
-57.000000000005
 31
0.0
  0
LINE
  5
34B
330
71
100
AcDbEntity
  8
1
  6
Continuous
 62
     6
100
AcDbLine
 10
-123.4999999999909
 20
-77.000000000005
 30
0.0
 11
-410.499999999989
 21
-77.000000000005
 31
0.0
  0
LINE
  5
34C
330
71
100
AcDbEntity
  8
1
  6
Continuous
 62
     2
100
AcDbLine
 10
-123.499999999989
 20
-212.0000000000049
 30
0.0
 11
-118.4999999999909
 21
-212.0000000000049
 31
0.0
  0
LINE
  5
34D
330
71
100
AcDbEntity
  8
1
  6
Continuous
 62
     6
100
AcDbLine
 10
-123.499999999989
 20
-212.0000000000049
 30
0.0
 11
-123.4999999999895
 21
-162.0000000000051
 31
0.0
  0
LINE
  5
34E
330
71
100
AcDbEntity
  8
1
  6
Continuous
 62
     2
100
AcDbLine
 10
-118.4999999999909
 20
-212.0000000000049
 30
0.0
 11
-118.4999999999909
 21
-162.0000000000051
 31
0.0
  0
LINE
  5
34F
330
71
100
AcDbEntity
  8
1
  6
Continuous
 62
     2
100
AcDbLine
 10
-123.4999999999895
 20
-162.0000000000051
 30
0.0
 11
-118.4999999999909
 21
-162.0000000000051
 31
0.0
  0
LINE
  5
350
330
71
100
AcDbEntity
  8
1
  6
Continuous
 62
     6
100
AcDbLine
 10
-123.4999999999895
 20
-162.0000000000051
 30
0.0
 11
-123.4999999999907
 21
-112.000000000005
 31
0.0
  0
LINE
  5
351
330
71
100
AcDbEntity
  8
1
  6
Continuous
 62
     2
100
AcDbLine
 10
-118.4999999999909
 20
-162.0000000000051
 30
0.0
 11
-118.4999999999909
 21
-112.000000000005
 31
0.0
  0
LINE
  5
352
330
71
100
AcDbEntity
  8
1
  6
Continuous
 62
     2
100
AcDbLine
 10
-123.4999999999907
 20
-112.000000000005
 30
0.0
 11
-118.4999999999909
 21
-112.000000000005
 31
0.0
  0
LINE
  5
353
330
71
100
AcDbEntity
  8
1
  6
Continuous
 62
     6
100
AcDbLine
 10
-123.4999999999907
 20
-112.000000000005
 30
0.0
 11
-123.4999999999909
 21
-77.000000000005
 31
0.0
  0
LINE
  5
354
330
71
100
AcDbEntity
  8
1
  6
Continuous
 62
     2
100
AcDbLine
 10
-118.4999999999909
 20
-112.000000000005
 30
0.0
 11
-118.4999999999909
 21
-57.000000000005
 31
0.0
  0
LINE
  5
355
330
71
100
AcDbEntity
  8
1
  6
Continuous
 62
     2
100
AcDbLine
 10
-118.4999999999909
 20
-262.000000000005
 30
0.0
 11
-118.4999999999909
 21
-212.0000000000049
 31
0.0
  0
LINE
  5
356
330
71
100
AcDbEntity
  8
1
  6
Continuous
 62
     2
100
AcDbLine
 10
-266.9999999999899
 20
-57.000000000005
 30
0.0
 11
-415.499999999989
 21
-57.000000000005
 31
0.0
  0
LINE
  5
357
330
71
100
AcDbEntity
  8
1
  6
Continuous
 62
     2
100
AcDbLine
 10
-266.9999999999899
 20
-57.000000000005
 30
0.0
 11
-266.9999999999899
 21
-66.20869184470632
 31
0.0
  0
LINE
  5
358
330
71
100
AcDbEntity
  8
1
  6
Continuous
 62
     2
100
AcDbLine
 10
-415.499999999989
 20
-267.0000000000051
 30
0.0
 11
-410.499999999988
 21
-267.0000000000051
 31
0.0
  0
LINE
  5
359
330
71
100
AcDbEntity
  8
1
  6
Continuous
 62
     2
100
AcDbLine
 10
-415.499999999989
 20
-57.000000000005
 30
0.0
 11
-415.499999999989
 21
-112.000000000005
 31
0.0
  0
LINE
  5
35A
330
71
100
AcDbEntity
  8
1
  6
Continuous
 62
     6
100
AcDbLine
 10
-410.499999999989
 20
-77.000000000005
 30
0.0
 11
-410.4999999999889
 21
-112.000000000005
 31
0.0
  0
LINE
  5
35B
330
71
100
AcDbEntity
  8
1
  6
Continuous
 62
     2
100
AcDbLine
 10
-415.499999999989
 20
-112.000000000005
 30
0.0
 11
-410.4999999999889
 21
-112.000000000005
 31
0.0
  0
LINE
  5
35C
330
71
100
AcDbEntity
  8
1
  6
Continuous
 62
     2
100
AcDbLine
 10
-415.499999999989
 20
-112.000000000005
 30
0.0
 11
-415.499999999989
 21
-162.0000000000051
 31
0.0
  0
LINE
  5
35D
330
71
100
AcDbEntity
  8
1
  6
Continuous
 62
     6
100
AcDbLine
 10
-410.4999999999889
 20
-112.000000000005
 30
0.0
 11
-410.4999999999884
 21
-162.0000000000051
 31
0.0
  0
LINE
  5
35E
330
71
100
AcDbEntity
  8
1
  6
Continuous
 62
     2
100
AcDbLine
 10
-415.499999999989
 20
-162.0000000000051
 30
0.0
 11
-410.4999999999884
 21
-162.0000000000051
 31
0.0
  0
LINE
  5
35F
330
71
100
AcDbEntity
  8
1
  6
Continuous
 62
     2
100
AcDbLine
 10
-415.499999999989
 20
-162.0000000000051
 30
0.0
 11
-415.499999999989
 21
-212.0000000000049
 31
0.0
  0
LINE
  5
360
330
71
100
AcDbEntity
  8
1
  6
Continuous
 62
     6
100
AcDbLine
 10
-410.4999999999884
 20
-162.0000000000051
 30
0.0
 11
-410.4999999999882
 21
-212.0000000000049
 31
0.0
  0
LINE
  5
361
330
71
100
AcDbEntity
  8
1
  6
Continuous
 62
     2
100
AcDbLine
 10
-415.499999999989
 20
-212.0000000000049
 30
0.0
 11
-410.4999999999882
 21
-212.0000000000049
 31
0.0
  0
LINE
  5
362
330
71
100
AcDbEntity
  8
1
  6
Continuous
 62
     2
100
AcDbLine
 10
-415.499999999989
 20
-212.0000000000049
 30
0.0
 11
-415.499999999989
 21
-262.000000000005
 31
0.0
  0
LINE
  5
363
330
71
100
AcDbEntity
  8
1
  6
Continuous
 62
     6
100
AcDbLine
 10
-410.4999999999882
 20
-212.0000000000049
 30
0.0
 11
-410.499999999988
 21
-262.000000000005
 31
0.0
  0
LINE
  5
364
330
71
100
AcDbEntity
  8
1
  6
Continuous
 62
     2
100
AcDbLine
 10
-366.9999999999899
 20
-267.0000000000051
 30
0.0
 11
-366.9999999999899
 21
-262.000000000005
 31
0.0
  0
LINE
  5
365
330
71
100
AcDbEntity
  8
1
  6
Continuous
 62
     2
100
AcDbLine
 10
-366.9999999999899
 20
-267.0000000000051
 30
0.0
 11
-316.9999999999901
 21
-267.0000000000051
 31
0.0
  0
LINE
  5
366
330
71
100
AcDbEntity
  8
1
  6
Continuous
 62
     2
100
AcDbLine
 10
-316.9999999999901
 20
-267.0000000000051
 30
0.0
 11
-316.9999999999901
 21
-262.000000000005
 31
0.0
  0
LINE
  5
367
330
71
100
AcDbEntity
  8
1
  6
Continuous
 62
     2
100
AcDbLine
 10
-316.9999999999901
 20
-267.0000000000051
 30
0.0
 11
-266.9999999999899
 21
-267.0000000000051
 31
0.0
  0
LINE
  5
368
330
71
100
AcDbEntity
  8
1
  6
Continuous
 62
     2
100
AcDbLine
 10
-266.9999999999899
 20
-267.0000000000051
 30
0.0
 11
-266.9999999999899
 21
-262.000000000005
 31
0.0
  0
LINE
  5
369
330
71
100
AcDbEntity
  8
1
  6
Continuous
 62
     2
100
AcDbLine
 10
-266.9999999999899
 20
-267.0000000000051
 30
0.0
 11
-216.9999999999899
 21
-267.0000000000051
 31
0.0
  0
LINE
  5
36A
330
71
100
AcDbEntity
  8
1
  6
Continuous
 62
     2
100
AcDbLine
 10
-216.9999999999899
 20
-267.0000000000051
 30
0.0
 11
-216.9999999999899
 21
-262.000000000005
 31
0.0
  0
LINE
  5
36B
330
71
100
AcDbEntity
  8
1
  6
Continuous
 62
     2
100
AcDbLine
 10
-166.9999999999899
 20
-267.0000000000051
 30
0.0
 11
-166.9999999999899
 21
-262.000000000005
 31
0.0
  0
LINE
  5
36C
330
71
100
AcDbEntity
  8
1
  6
Continuous
 62
     2
100
AcDbLine
 10
-166.9999999999899
 20
-267.0000000000051
 30
0.0
 11
-216.9999999999899
 21
-267.0000000000051
 31
0.0
  0
LINE
  5
36D
330
71
100
AcDbEntity
  8
1
  6
Continuous
 62
     2
100
AcDbLine
 10
-410.499999999988
 20
-262.000000000005
 30
0.0
 11
-410.499999999988
 21
-267.0000000000051
 31
0.0
  0
LINE
  5
36E
330
71
100
AcDbEntity
  8
1
  6
Continuous
 62
     2
100
AcDbLine
 10
-410.499999999988
 20
-267.0000000000051
 30
0.0
 11
-366.9999999999899
 21
-267.0000000000051
 31
0.0
  0
LINE
  5
36F
330
71
100
AcDbEntity
  8
1
  6
Continuous
 62
     2
100
AcDbLine
 10
-410.499999999988
 20
-262.000000000005
 30
0.0
 11
-415.499999999989
 21
-262.000000000005
 31
0.0
  0
LINE
  5
370
330
71
100
AcDbEntity
  8
1
  6
Continuous
 62
     2
100
AcDbLine
 10
-415.499999999989
 20
-262.000000000005
 30
0.0
 11
-415.499999999989
 21
-267.0000000000051
 31
0.0
  0
LINE
  5
371
330
71
100
AcDbEntity
  8
1
  6
Continuous
 62
     6
100
AcDbLine
 10
-123.4999999999899
 20
-262.000000000005
 30
0.0
 11
-123.4999999999886
 21
-253.500000000005
 31
0.0
  0
LINE
  5
372
330
71
100
AcDbEntity
  8
1
  6
Continuous
 62
     6
100
AcDbLine
 10
-216.64480452674
 20
-262.0000000000051
 30
0.0
 11
-166.9999999999899
 21
-262.000000000005
 31
0.0
  0
LINE
  5
373
330
71
100
AcDbEntity
  8
1
  6
Continuous
 62
     6
100
AcDbLine
 10
-369.2999999999901
 20
-262.0000000000051
 30
0.0
 11
-366.9999999999899
 21
-262.000000000005
 31
0.0
  0
LINE
  5
374
330
71
100
AcDbEntity
  8
1
  6
Continuous
 62
     6
100
AcDbLine
 10
-266.9999999999899
 20
-262.000000000005
 30
0.0
 11
-316.9999999999901
 21
-262.000000000005
 31
0.0
  0
LINE
  5
375
330
71
100
AcDbEntity
  8
1
  6
Continuous
 62
     7
100
AcDbLine
 10
-253.0448045267399
 20
-245.000000000005
 30
0.0
 11
-253.0448045267399
 21
-257.7500000000051
 31
0.0
  0
LINE
  5
376
330
71
100
AcDbEntity
  8
1
  6
Continuous
 62
     7
100
AcDbLine
 10
-216.64480452674
 20
-245.000000000005
 30
0.0
 11
-216.64480452674
 21
-257.750000000005
 31
0.0
  0
LINE
  5
377
330
71
100
AcDbEntity
  8
1
  6
Continuous
 62
     6
100
AcDbLine
 10
-369.2999999999901
 20
-262.0000000000051
 30
0.0
 11
-375.4999999999881
 21
-262.000000000005
 31
0.0
  0
LINE
  5
378
330
71
100
AcDbEntity
  8
1
  6
Continuous
 62
     6
100
AcDbLine
 10
-216.64480452674
 20
-262.0000000000051
 30
0.0
 11
-216.9999999999899
 21
-262.000000000005
 31
0.0
  0
LINE
  5
379
330
71
100
AcDbEntity
  8
1
  6
Continuous
 62
     6
100
AcDbLine
 10
-123.4999999999882
 20
-245.000000000005
 30
0.0
 11
-123.4999999999886
 21
-253.500000000005
 31
0.0
  0
LINE
  5
37A
330
71
100
AcDbEntity
  8
1
  6
Continuous
 62
     6
100
AcDbLine
 10
-375.4999999999881
 20
-262.000000000005
 30
0.0
 11
-410.499999999988
 21
-262.000000000005
 31
0.0
  0
LINE
  5
37B
330
71
100
AcDbEntity
  8
1
  6
Continuous
 62
     2
100
AcDbLine
 10
-248.8081496401773
 20
-239.6250000000051
 30
0.0
 11
-243.8081496401773
 21
-238.3750000000051
 31
0.0
  0
LINE
  5
37C
330
71
100
AcDbEntity
  8
1
  6
Continuous
 62
     2
100
AcDbLine
 10
-248.8081496401773
 20
-242.1250000000051
 30
0.0
 11
-248.8081496401773
 21
-239.6250000000051
 31
0.0
  0
LINE
  5
37D
330
71
100
AcDbEntity
  8
1
  6
Continuous
 62
     2
100
AcDbLine
 10
-243.8081496401773
 20
-243.3750000000051
 30
0.0
 11
-248.8081496401773
 21
-242.1250000000051
 31
0.0
  0
LINE
  5
37E
330
71
100
AcDbEntity
  8
1
  6
Continuous
 62
     2
100
AcDbLine
 10
-243.8081496401773
 20
-238.3750000000051
 30
0.0
 11
-243.8081496401773
 21
-243.3750000000051
 31
0.0
  0
LINE
  5
37F
330
71
100
AcDbEntity
  8
1
  6
Continuous
 62
     7
100
AcDbLine
 10
-253.0448045267399
 20
-257.7500000000051
 30
0.0
 11
-234.8448045267399
 21
-257.750000000005
 31
0.0
  0
LINE
  5
380
330
71
100
AcDbEntity
  8
1
  6
Continuous
 62
     7
100
AcDbLine
 10
-253.0448045267399
 20
-257.7500000000051
 30
0.0
 11
-253.0448045267399
 21
-262.0000000000051
 31
0.0
  0
LINE
  5
381
330
71
100
AcDbEntity
  8
1
  6
Continuous
 62
     7
100
AcDbLine
 10
-216.64480452674
 20
-257.750000000005
 30
0.0
 11
-216.64480452674
 21
-262.0000000000051
 31
0.0
  0
LINE
  5
382
330
71
100
AcDbEntity
  8
1
  6
Continuous
 62
     7
100
AcDbLine
 10
-234.8448045267399
 20
-257.750000000005
 30
0.0
 11
-234.8448045267399
 21
-262.000000000005
 31
0.0
  0
LINE
  5
383
330
71
100
AcDbEntity
  8
1
  6
Continuous
 62
     6
100
AcDbLine
 10
-234.8448045267399
 20
-262.000000000005
 30
0.0
 11
-253.0448045267399
 21
-262.0000000000051
 31
0.0
  0
LINE
  5
384
330
71
100
AcDbEntity
  8
1
  6
Continuous
 62
     7
100
AcDbLine
 10
-234.8448045267399
 20
-257.750000000005
 30
0.0
 11
-216.64480452674
 21
-257.750000000005
 31
0.0
  0
LINE
  5
385
330
71
100
AcDbEntity
  8
1
  6
Continuous
 62
     6
100
AcDbLine
 10
-253.0448045267399
 20
-236.500000000005
 30
0.0
 11
-123.4999999999882
 21
-236.500000000005
 31
0.0
  0
ARC
  5
386
102
{ACAD_REACTORS
330
3EE
330
3EF
102
}
330
71
100
AcDbEntity
  8
0
  6
Continuous
 62
     2
100
AcDbCircle
 10
-237.6531565277799
 20
-253.1795952380834
 30
0.0
 40
0.7717997786796947
100
AcDbArc
 50
321.8795802028417
 51
38.12041979715329
  0
ARC
  5
387
102
{ACAD_REACTORS
330
3EE
330
3EF
102
}
330
71
100
AcDbEntity
  8
0
  6
Continuous
 62
     2
100
AcDbCircle
 10
-237.4534164914335
 20
-253.3363264162034
 30
0.0
 40
0.5179085730137354
100
AcDbArc
 50
218.1204197971931
 51
321.879580202801
  0
ARC
  5
388
102
{ACAD_REACTORS
330
3EE
330
3EF
102
}
330
71
100
AcDbEntity
  8
0
  6
Continuous
 62
     2
100
AcDbCircle
 10
-237.2536764550874
 20
-253.1795952380834
 30
0.0
 40
0.7717997786794633
100
AcDbArc
 50
141.8795802028363
 51
218.1204197971687
  0
ARC
  5
389
102
{ACAD_REACTORS
330
3EE
330
3EF
102
}
330
71
100
AcDbEntity
  8
0
  6
Continuous
 62
     2
100
AcDbCircle
 10
-237.4534164914335
 20
-253.0228640599629
 30
0.0
 40
0.5179085730132998
100
AcDbArc
 50
38.12041979714704
 51
141.8795802028588
  0
ARC
  5
38A
102
{ACAD_REACTORS
330
3E6
330
3E7
102
}
330
71
100
AcDbEntity
  8
0
  6
Continuous
 62
     2
100
AcDbCircle
 10
-240.5154306269974
 20
-254.5900616034916
 30
0.0
 40
2.227384008973478
100
AcDbArc
 50
58.06909105004071
 51
71.55192388186722
  0
ARC
  5
38B
102
{ACAD_REACTORS
330
3E6
330
3E7
102
}
330
71
100
AcDbEntity
  8
0
  6
Continuous
 62
     2
100
AcDbCircle
 10
-240.2537029260386
 20
-252.9745238087444
 30
0.0
 40
0.5115800601948779
100
AcDbArc
 50
113.3722778881992
 51
151.4785267423044
  0
ARC
  5
38C
102
{ACAD_REACTORS
330
3E6
330
3E7
102
}
330
71
100
AcDbEntity
  8
0
  6
Continuous
 62
     2
100
AcDbCircle
 10
-239.8763456679583
 20
-253.1795952380834
 30
0.0
 40
0.9410597353332545
100
AcDbArc
 50
151.4785267422669
 51
208.5214732577057
  0
ARC
  5
38D
102
{ACAD_REACTORS
330
3E6
330
3E7
102
}
330
71
100
AcDbEntity
  8
0
  6
Continuous
 62
     2
100
AcDbCircle
 10
-240.6733035020903
 20
-249.866914292827
 30
0.0
 40
4.852596863498138
100
AcDbArc
 50
275.1581447696249
 51
285.9799912583529
  0
ARC
  5
38E
102
{ACAD_REACTORS
330
3E6
330
3E7
102
}
330
71
100
AcDbEntity
  8
0
  6
Continuous
 62
     2
100
AcDbCircle
 10
-240.3844474073544
 20
-253.0668048760486
 30
0.0
 40
1.639695123939387
100
AcDbArc
 50
195.0618917770896
 51
275.1581447696395
  0
ARC
  5
38F
102
{ACAD_REACTORS
330
3E6
330
3E7
102
}
330
71
100
AcDbEntity
  8
0
  6
Continuous
 62
     2
100
AcDbCircle
 10
-240.8035752508172
 20
-253.1795952380834
 30
0.0
 40
1.205656168390944
100
AcDbArc
 50
164.9381082228765
 51
195.0618917770948
  0
ARC
  5
390
102
{ACAD_REACTORS
330
3E6
330
3E7
102
}
330
71
100
AcDbEntity
  8
0
  6
Continuous
 62
     2
100
AcDbCircle
 10
-240.3844474073544
 20
-253.2923856001183
 30
0.0
 40
1.639695123940507
100
AcDbArc
 50
84.84185523036236
 51
164.9381082228864
  0
ARC
  5
391
102
{ACAD_REACTORS
330
3EA
330
3EB
102
}
330
71
100
AcDbEntity
  8
0
  6
Continuous
 62
     2
100
AcDbCircle
 10
-245.2144616615163
 20
-252.1457684437291
 30
0.0
 40
0.3157169230765328
100
AcDbArc
 50
115.3740086783519
 51
180.0
  0
ARC
  5
392
102
{ACAD_REACTORS
330
3EA
330
3EB
102
}
330
71
100
AcDbEntity
  8
0
  6
Continuous
 62
     2
100
AcDbCircle
 10
-245.2144616615163
 20
-249.9274852437929
 30
0.0
 40
0.315716923076792
100
AcDbArc
 50
180.0
 51
244.6259913216482
  0
ARC
  5
393
102
{ACAD_REACTORS
330
3EA
330
3EB
102
}
330
71
100
AcDbEntity
  8
0
  6
Continuous
 62
     2
100
AcDbCircle
 10
-245.2088455262063
 20
-251.0247849028552
 30
0.0
 40
2.018561131933266
100
AcDbArc
 50
269.8110329575858
 51
90.18896704241416
  0
ARC
  5
394
102
{ACAD_REACTORS
330
3EA
330
3EB
102
}
330
71
100
AcDbEntity
  8
0
  6
Continuous
 62
     2
100
AcDbCircle
 10
-245.2144616615163
 20
-252.7276198504242
 30
0.0
 40
0.315716923076792
100
AcDbArc
 50
180.0
 51
269.8110329574542
  0
ARC
  5
395
102
{ACAD_REACTORS
330
3E8
330
3E9
102
}
330
71
100
AcDbEntity
  8
0
  6
Continuous
 62
     2
100
AcDbCircle
 10
-224.1510014467857
 20
-252.9745238087444
 30
0.0
 40
0.5115800601944143
100
AcDbArc
 50
109.3371432194853
 51
151.4785267424225
  0
ARC
  5
396
102
{ACAD_REACTORS
330
3E8
330
3E9
102
}
330
71
100
AcDbEntity
  8
0
  6
Continuous
 62
     2
100
AcDbCircle
 10
-224.1510014467857
 20
-253.3846666674219
 30
0.0
 40
0.5115800601960215
100
AcDbArc
 50
208.5214732576866
 51
246.6277221118449
  0
ARC
  5
397
102
{ACAD_REACTORS
330
3E8
330
3E9
102
}
330
71
100
AcDbEntity
  8
0
  6
Continuous
 62
     2
100
AcDbCircle
 10
-224.7008737715631
 20
-253.1795952380834
 30
0.0
 40
1.205656168393002
100
AcDbArc
 50
164.9381082229028
 51
195.0618917770959
  0
ARC
  5
398
102
{ACAD_REACTORS
330
3E8
330
3E9
102
}
330
71
100
AcDbEntity
  8
0
  6
Continuous
 62
     2
100
AcDbCircle
 10
-224.2817459281015
 20
-253.2923856001183
 30
0.0
 40
1.639695123940214
100
AcDbArc
 50
90.0
 51
164.938108222895
  0
ARC
  5
399
102
{ACAD_REACTORS
330
3EC
330
3ED
102
}
330
71
100
AcDbEntity
  8
0
  6
Continuous
 62
     2
100
AcDbCircle
 10
-233.7087410208052
 20
-249.8204047619091
 30
0.0
 40
1.526904761905882
100
AcDbArc
 50
90.0
 51
270.0
  0
ARC
  5
39A
102
{ACAD_REACTORS
330
3F0
330
3F1
102
}
330
71
100
AcDbEntity
  8
0
  6
Continuous
 62
     2
100
AcDbCircle
 10
-240.451431766031
 20
-249.3094696701144
 30
0.0
 40
0.3528638246711182
100
AcDbArc
 50
270.0
 51
90.0
  0
ARC
  5
39B
102
{ACAD_REACTORS
330
3EA
330
3EB
102
}
330
71
100
AcDbEntity
  8
0
  6
Continuous
 62
     2
100
AcDbCircle
 10
-247.790010348048
 20
-249.321772478638
 30
0.0
 40
0.3157169230761951
100
AcDbArc
 50
90.0
 51
180.0
  0
ARC
  5
39C
102
{ACAD_REACTORS
330
3EA
330
3EB
102
}
330
71
100
AcDbEntity
  8
0
  6
Continuous
 62
     2
100
AcDbCircle
 10
-245.7915926394634
 20
-251.0366268437607
 30
0.0
 40
0.9118975235576147
100
AcDbArc
 50
115.1944106485282
 51
244.8055893514878
  0
ARC
  5
39D
102
{ACAD_REACTORS
330
3EA
330
3EB
102
}
330
71
100
AcDbEntity
  8
0
  6
Continuous
 62
     2
100
AcDbCircle
 10
-246.3141770870384
 20
-252.1474565898235
 30
0.0
 40
0.315716923076593
100
AcDbArc
 50
0.0
 51
64.80558935146027
  0
ARC
  5
39E
102
{ACAD_REACTORS
330
3EA
330
3EB
102
}
330
71
100
AcDbEntity
  8
0
  6
Continuous
 62
     2
100
AcDbCircle
 10
-248.3839050247945
 20
-254.2822553846054
 30
0.0
 40
0.4242446153828041
100
AcDbArc
 50
180.0
 51
270.0
  0
ARC
  5
39F
102
{ACAD_REACTORS
330
3EC
330
3ED
102
}
330
71
100
AcDbEntity
  8
0
  6
Continuous
 62
     2
100
AcDbCircle
 10
-233.49246901064
 20
-249.6636735837886
 30
0.0
 40
0.5179085730135266
100
AcDbArc
 50
38.12041979714334
 51
141.8795802028489
  0
ARC
  5
3A0
102
{ACAD_REACTORS
330
3EC
330
3ED
102
}
330
71
100
AcDbEntity
  8
0
  6
Continuous
 62
     2
100
AcDbCircle
 10
-233.2927289742937
 20
-249.8204047619091
 30
0.0
 40
0.7717997786796724
100
AcDbArc
 50
141.8795802028404
 51
218.1204197971562
  0
ARC
  5
3A1
102
{ACAD_REACTORS
330
3EE
330
3EF
102
}
330
71
100
AcDbEntity
  8
0
  6
Continuous
 62
     2
100
AcDbCircle
 10
-237.4534164914335
 20
-252.6410202277801
 30
0.0
 40
2.065479772208509
100
AcDbArc
 50
242.4518518243402
 51
297.5481481756871
  0
ARC
  5
3A2
102
{ACAD_REACTORS
330
3EE
330
3EF
102
}
330
71
100
AcDbEntity
  8
0
  6
Continuous
 62
     2
100
AcDbCircle
 10
-237.4534164914335
 20
-253.7181702483862
 30
0.0
 40
2.065479772208568
100
AcDbArc
 50
62.45185182430637
 51
117.5481481756664
  0
ARC
  5
3A3
102
{ACAD_REACTORS
330
3EE
330
3EF
102
}
330
71
100
AcDbEntity
  8
0
  6
Continuous
 62
     2
100
AcDbCircle
 10
-237.7343563832668
 20
-253.1795952380834
 30
0.0
 40
1.45803408365149
100
AcDbArc
 50
117.5481481756624
 51
242.4518518243375
  0
ARC
  5
3A4
102
{ACAD_REACTORS
330
3EE
330
3EF
102
}
330
71
100
AcDbEntity
  8
0
  6
Continuous
 62
     2
100
AcDbCircle
 10
-237.1724765996002
 20
-253.1795952380834
 30
0.0
 40
1.458034083652003
100
AcDbArc
 50
297.548148175701
 51
62.45185182429896
  0
ARC
  5
3A5
102
{ACAD_REACTORS
330
3EC
330
3ED
102
}
330
71
100
AcDbEntity
  8
0
  6
Continuous
 62
     2
100
AcDbCircle
 10
-233.49246901064
 20
-249.9771359400295
 30
0.0
 40
0.5179085730134372
100
AcDbArc
 50
218.1204197971511
 51
321.8795802028566
  0
ARC
  5
3A6
102
{ACAD_REACTORS
330
3EC
330
3ED
102
}
330
71
100
AcDbEntity
  8
0
  6
Continuous
 62
     2
100
AcDbCircle
 10
-233.6922090469862
 20
-249.8204047619091
 30
0.0
 40
0.7717997786796373
100
AcDbArc
 50
321.8795802028437
 51
38.12041979715956
  0
ARC
  5
3A7
102
{ACAD_REACTORS
330
3EA
330
3EB
102
}
330
71
100
AcDbEntity
  8
0
  6
Continuous
 62
     2
100
AcDbCircle
 10
-242.9105929340777
 20
-254.2822553846054
 30
0.0
 40
0.4242446153832873
100
AcDbArc
 50
270.0
 51
0.0
  0
ARC
  5
3A8
102
{ACAD_REACTORS
330
3EA
330
3EB
102
}
330
71
100
AcDbEntity
  8
0
  6
Continuous
 62
     2
100
AcDbCircle
 10
-242.9105929340777
 20
-248.7177446154052
 30
0.0
 40
0.4242446153838841
100
AcDbArc
 50
0.0
 51
90.0
  0
ARC
  5
3A9
102
{ACAD_REACTORS
330
3EA
330
3EB
102
}
330
71
100
AcDbEntity
  8
0
  6
Continuous
 62
     2
100
AcDbCircle
 10
-248.3839050247945
 20
-248.7177446154052
 30
0.0
 40
0.4242446153837989
100
AcDbArc
 50
90.0
 51
180.0
  0
ARC
  5
3AA
102
{ACAD_REACTORS
330
3EA
330
3EB
102
}
330
71
100
AcDbEntity
  8
0
  6
Continuous
 62
     2
100
AcDbCircle
 10
-246.3141770870384
 20
-253.6782275213551
 30
0.0
 40
0.3157169230767067
100
AcDbArc
 50
270.0
 51
0.0
  0
ARC
  5
3AB
102
{ACAD_REACTORS
330
3EA
330
3EB
102
}
330
71
100
AcDbEntity
  8
0
  6
Continuous
 62
     2
100
AcDbCircle
 10
-246.3141770870384
 20
-249.9257970976985
 30
0.0
 40
0.3157169230761203
100
AcDbArc
 50
295.1944106485397
 51
0.0
  0
ARC
  5
3AC
102
{ACAD_REACTORS
330
3EA
330
3EB
102
}
330
71
100
AcDbEntity
  8
0
  6
Continuous
 62
     2
100
AcDbCircle
 10
-246.3141770870384
 20
-249.321772478638
 30
0.0
 40
0.315716923076593
100
AcDbArc
 50
0.0
 51
90.0
  0
ARC
  5
3AD
102
{ACAD_REACTORS
330
3EA
330
3EB
102
}
330
71
100
AcDbEntity
  8
0
  6
Continuous
 62
     2
100
AcDbCircle
 10
-247.790010348048
 20
-253.6782275213551
 30
0.0
 40
0.3157169230756836
100
AcDbArc
 50
180.0
 51
270.0
  0
ARC
  5
3AE
102
{ACAD_REACTORS
330
3F0
330
3F1
102
}
330
71
100
AcDbEntity
  8
0
  6
Continuous
 62
     2
100
AcDbCircle
 10
-240.0099592397926
 20
-249.3488656413369
 30
0.0
 40
1.055365641333708
100
AcDbArc
 50
270.0
 51
90.0
  0
ARC
  5
3AF
102
{ACAD_REACTORS
330
3E8
330
3E9
102
}
330
71
100
AcDbEntity
  8
0
  6
Continuous
 62
     2
100
AcDbCircle
 10
-224.2817459281015
 20
-253.0668048760486
 30
0.0
 40
1.639695123940448
100
AcDbArc
 50
195.0618917771012
 51
275.1581447696762
  0
ARC
  5
3B0
102
{ACAD_REACTORS
330
3E8
330
3E9
102
}
330
71
100
AcDbEntity
  8
0
  6
Continuous
 62
     2
100
AcDbCircle
 10
-224.5706020228373
 20
-249.866914292827
 30
0.0
 40
4.852596863498825
100
AcDbArc
 50
275.1581447696364
 51
285.9799912583387
  0
ARC
  5
3B1
102
{ACAD_REACTORS
330
3E8
330
3E9
102
}
330
71
100
AcDbEntity
  8
0
  6
Continuous
 62
     2
100
AcDbCircle
 10
-224.4127291477445
 20
-251.7691288726753
 30
0.0
 40
2.227384008972746
100
AcDbArc
 50
288.4480761181335
 51
301.9309089499397
  0
ARC
  5
3B2
102
{ACAD_REACTORS
330
3E8
330
3E9
102
}
330
71
100
AcDbEntity
  8
0
  6
Continuous
 62
     2
100
AcDbCircle
 10
-223.9945614140826
 20
-253.0226746487119
 30
0.0
 40
0.9059297849852801
100
AcDbArc
 50
246.6277221118183
 51
288.4480761180817
  0
ARC
  5
3B3
102
{ACAD_REACTORS
330
3E8
330
3E9
102
}
330
71
100
AcDbEntity
  8
0
  6
Continuous
 62
     2
100
AcDbCircle
 10
-223.7736441887043
 20
-253.1795952380834
 30
0.0
 40
0.9410597353348924
100
AcDbArc
 50
151.4785267423624
 51
208.5214732576695
  0
ARC
  5
3B4
102
{ACAD_REACTORS
330
3E8
330
3E9
102
}
330
71
100
AcDbEntity
  8
0
  6
Continuous
 62
     2
100
AcDbCircle
 10
-224.004331448682
 20
-253.3924787891273
 30
0.0
 40
0.9545230068260935
100
AcDbArc
 50
90.0
 51
109.337143219432
  0
ARC
  5
3B5
102
{ACAD_REACTORS
330
3EA
330
3EB
102
}
330
71
100
AcDbEntity
  8
0
  6
Continuous
 62
     2
100
AcDbCircle
 10
-245.2144616615163
 20
-249.3219499552861
 30
0.0
 40
0.3157169230760711
100
AcDbArc
 50
90.18896704254594
 51
180.0
  0
ARC
  5
3B6
102
{ACAD_REACTORS
330
3EA
330
3EB
102
}
330
71
100
AcDbEntity
  8
0
  6
Continuous
 62
     2
100
AcDbCircle
 10
-245.7405043596042
 20
-251.0366268437607
 30
0.0
 40
0.911848150144459
100
AcDbArc
 50
295.3740086781764
 51
64.62599132180748
  0
ARC
  5
3B7
102
{ACAD_REACTORS
330
3E6
330
3E7
102
}
330
71
100
AcDbEntity
  8
0
  6
Continuous
 62
     2
100
AcDbCircle
 10
-240.5154306269974
 20
-251.7691288726747
 30
0.0
 40
2.227384008972737
100
AcDbArc
 50
288.4480761181328
 51
301.9309089499593
  0
ARC
  5
3B8
102
{ACAD_REACTORS
330
3E6
330
3E7
102
}
330
71
100
AcDbEntity
  8
0
  6
Continuous
 62
     2
100
AcDbCircle
 10
-240.0972628933366
 20
-253.0226746487119
 30
0.0
 40
0.9059297849849192
100
AcDbArc
 50
246.627722111871
 51
288.4480761181584
  0
ARC
  5
3B9
102
{ACAD_REACTORS
330
3E6
330
3E7
102
}
330
71
100
AcDbEntity
  8
0
  6
Continuous
 62
     2
100
AcDbCircle
 10
-240.2537029260386
 20
-253.3846666674219
 30
0.0
 40
0.5115800601948034
100
AcDbArc
 50
208.5214732576956
 51
246.6277221118274
  0
ARC
  5
3BA
102
{ACAD_REACTORS
330
3E6
330
3E7
102
}
330
71
100
AcDbEntity
  8
0
  6
Continuous
 62
     2
100
AcDbCircle
 10
-240.0972628933366
 20
-253.336515827455
 30
0.0
 40
0.9059297849853228
100
AcDbArc
 50
71.55192388185348
 51
113.372277888129
  0
ARC
  5
3BB
102
{ACAD_REACTORS
330
3E6
330
3E7
102
}
330
71
100
AcDbEntity
  8
0
  6
Continuous
 62
     2
100
AcDbCircle
 10
-240.6733035020903
 20
-256.4922761833393
 30
0.0
 40
4.852596863498068
100
AcDbArc
 50
74.02000874164739
 51
84.84185523037506
  0
CIRCLE
  5
3BC
102
{ACAD_REACTORS
330
3EA
330
3EB
102
}
330
71
100
AcDbEntity
  8
0
  6
Continuous
 62
     2
100
AcDbCircle
 10
-245.764319374277
 20
-251.0366268437607
 30
0.0
 40
0.4709789327785074
  0
CIRCLE
  5
3BD
330
71
100
AcDbEntity
  8
1
  6
Continuous
 62
     2
100
AcDbCircle
 10
-240.3081496401773
 20
-240.8750000000051
 30
0.0
 40
1.249999999999915
  0
CIRCLE
  5
3BE
330
71
100
AcDbEntity
  8
1
  6
Continuous
 62
     2
100
AcDbCircle
 10
-240.3081496401773
 20
-240.8750000000051
 30
0.0
 40
2.5
  0
TEXT
  5
3BF
330
71
100
AcDbEntity
  8
1
 62
     7
100
AcDbText
 10
-197.6712568047261
 20
-243.7000000000051
 30
0.0
 40
2.5
  1
/
 41
0.9
  7
CONVERTER_11
100
AcDbText
  0
TEXT
  5
3C1
330
71
100
AcDbEntity
  8
1
 62
     7
100
AcDbText
 10
-195.5148923076841
 20
-243.7000000000051
 30
0.0
 40
2.5
  1
00
 41
0.81
  7
CONVERTER_12
100
AcDbText
  0
TEXT
  5
3C2
330
71
100
AcDbEntity
  8
1
 62
     3
100
AcDbText
 10
-157.918408281667
 20
-243.7000000000051
 30
0.0
 40
2.5
  1
09.02.2018
 41
0.81
  7
CONVERTER_12
100
AcDbText
  0
MTEXT
  5
3C3
330
71
100
AcDbEntity
  8
1
 62
     2
100
AcDbMText
 10
-157.918408281667
 20
-237.5000000000051
 30
0.0
 40
1.8
 41
0.0
 71
     1
 72
     1
  1
date
  7
CONVERTER_11
 73
     1
 44
1.32052821128451
  0
MTEXT
  5
3C4
330
71
100
AcDbEntity
  8
1
 62
     2
100
AcDbMText
 10
-187.7448045267399
 20
-246.0000000000051
 30
0.0
 40
1.8
 41
0.0
 71
     1
 72
     1
  1
document-type
  7
CONVERTER_11
 73
     1
 44
1.20048019207683
  0
TEXT
  5
3C5
330
71
100
AcDbEntity
  8
1
 62
     3
100
AcDbText
 10
-187.7448045267399
 20
-252.2000000000051
 30
0.0
 40
2.5
  1
TECDOC 2D_Productdrawing
 41
0.81
  7
CONVERTER_12
100
AcDbText
  0
MTEXT
  5
3C7
330
71
100
AcDbEntity
  8
1
 62
     2
100
AcDbMText
 10
-215.5448045267399
 20
-237.500000000005
 30
0.0
 40
1.8
 41
0.0
 71
     1
 72
     1
  1
document-No. / RI
  7
CONVERTER_13
 73
     1
 44
1.32052821128451
  0
TEXT
  5
3C8
330
71
100
AcDbEntity
  8
1
 62
     7
100
AcDbText
 10
-215.5448045267399
 20
-243.7000000000051
 30
0.0
 40
2.5
  1
01088929
 41
0.81
  7
CONVERTER_12
100
AcDbText
  0
MTEXT
  5
3CA
330
71
100
AcDbEntity
  8
1
 62
     3
100
AcDbMText
 10
-127.9592041408276
 20
-243.7000000000049
 30
0.0
 40
2.5
 41
0.0
 71
     8
 72
     1
  1
2:1
  7
CONVERTER_14
 73
     1
 44
1.32052821128451
  0
MTEXT
  5
3CB
330
71
100
AcDbEntity
  8
1
 62
     2
100
AcDbMText
 10
-131.3184082816672
 20
-237.500000000005
 30
0.0
 40
1.8
 41
0.0
 71
     1
 72
     1
  1
scale
  7
CONVERTER_11
 73
     1
 44
1.20048019207683
  0
MTEXT
  5
3CC
330
71
100
AcDbEntity
  8
1
 62
     2
100
AcDbMText
 10
-215.5448045267399
 20
-246.000000000005
 30
0.0
 40
1.8
 41
0.0
 71
     1
 72
     1
  1
ident.-No.
  7
CONVERTER_11
 73
     1
 44
1.20048019207683
  0
TEXT
  5
3CD
330
71
100
AcDbEntity
  8
1
 62
     7
100
AcDbText
 10
-215.1448045267402
 20
-252.2000000000051
 30
0.0
 40
2.5
  1
3073186
 41
0.81
  7
CONVERTER_12
100
AcDbText
  0
MTEXT
  5
3CE
330
71
100
AcDbEntity
  8
1
 62
     2
100
AcDbMText
 10
-287.4828192517874
 20
-249.2500000000051
 30
0.0
 40
2.0
 41
0.0
 71
     5
 72
     1
  1
General Information\P- Simplified representation\P- Document excluded from change process\P- Linear dimensions [mm]
  7
CONVERTER_11
 73
     1
 44
1.20048019207683
  0
MTEXT
  5
3CF
330
71
100
AcDbEntity
  8
1
 62
     7
100
AcDbMText
 10
-120.9999999999909
 20
-187.0000000000031
 30
0.0
 40
3.5
 41
0.0
 71
     5
 72
     1
  1
C
  7
CONVERTER_11
 73
     1
 44
1.20048019207683
  0
MTEXT
  5
3D0
330
71
100
AcDbEntity
  8
1
 62
     7
100
AcDbMText
 10
-120.9999999999909
 20
-84.500000000005
 30
0.0
 40
3.5
 41
0.0
 71
     5
 72
     1
  1
A
  7
CONVERTER_11
 73
     1
 44
1.20048019207683
  0
MTEXT
  5
3D1
330
71
100
AcDbEntity
  8
1
 62
     7
100
AcDbMText
 10
-120.9999999999909
 20
-137.0000000000031
 30
0.0
 40
3.5
 41
0.0
 71
     5
 72
     1
  1
B
  7
CONVERTER_11
 73
     1
 44
1.20048019207683
  0
MTEXT
  5
3D2
330
71
100
AcDbEntity
  8
1
 62
     7
100
AcDbMText
 10
-120.9999999999909
 20
-239.500000000005
 30
0.0
 40
3.5
 41
0.0
 71
     5
 72
     1
  1
D
  7
CONVERTER_11
 73
     1
 44
1.20048019207683
  0
MTEXT
  5
3D3
330
71
100
AcDbEntity
  8
1
 62
     7
100
AcDbMText
 10
-391.2499999999895
 20
-264.5000000000051
 30
0.0
 40
3.5
 41
0.0
 71
     5
 72
     1
  1
1
  7
CONVERTER_11
 73
     1
 44
1.20048019207683
  0
MTEXT
  5
3D4
330
71
100
AcDbEntity
  8
1
 62
     7
100
AcDbMText
 10
-341.9999999999899
 20
-264.5000000000051
 30
0.0
 40
3.5
 41
0.0
 71
     5
 72
     1
  1
2
  7
CONVERTER_11
 73
     1
 44
1.20048019207683
  0
MTEXT
  5
3D5
330
71
100
AcDbEntity
  8
1
 62
     7
100
AcDbMText
 10
-291.9999999999899
 20
-264.5000000000051
 30
0.0
 40
3.5
 41
0.0
 71
     5
 72
     1
  1
3
  7
CONVERTER_11
 73
     1
 44
1.20048019207683
  0
MTEXT
  5
3D6
330
71
100
AcDbEntity
  8
1
 62
     7
100
AcDbMText
 10
-241.99999999999
 20
-264.5000000000051
 30
0.0
 40
3.5
 41
0.0
 71
     5
 72
     1
  1
4
  7
CONVERTER_11
 73
     1
 44
1.20048019207683
  0
MTEXT
  5
3D7
330
71
100
AcDbEntity
  8
1
 62
     7
100
AcDbMText
 10
-191.9999999999899
 20
-264.5000000000051
 30
0.0
 40
3.5
 41
0.0
 71
     5
 72
     1
  1
5
  7
CONVERTER_11
 73
     1
 44
1.20048019207683
  0
MTEXT
  5
3D8
330
71
100
AcDbEntity
  8
1
 62
     7
100
AcDbMText
 10
-142.7499999999907
 20
-264.5000000000051
 30
0.0
 40
3.5
 41
0.0
 71
     5
 72
     1
  1
6
  7
CONVERTER_11
 73
     1
 44
1.20048019207683
  0
MTEXT
  5
3D9
330
71
100
AcDbEntity
  8
1
 62
     7
100
AcDbMText
 10
-412.999999999989
 20
-84.500000000005
 30
0.0
 40
3.5
 41
0.0
 71
     5
 72
     1
  1
A
  7
CONVERTER_11
 73
     1
 44
1.20048019207683
  0
MTEXT
  5
3DA
330
71
100
AcDbEntity
  8
1
 62
     7
100
AcDbMText
 10
-412.999999999989
 20
-137.000000000005
 30
0.0
 40
3.5
 41
0.0
 71
     5
 72
     1
  1
B
  7
CONVERTER_11
 73
     1
 44
1.20048019207683
  0
MTEXT
  5
3DB
330
71
100
AcDbEntity
  8
1
 62
     7
100
AcDbMText
 10
-412.999999999989
 20
-187.000000000005
 30
0.0
 40
3.5
 41
0.0
 71
     5
 72
     1
  1
C
  7
CONVERTER_11
 73
     1
 44
1.20048019207683
  0
MTEXT
  5
3DC
330
71
100
AcDbEntity
  8
1
 62
     7
100
AcDbMText
 10
-412.999999999989
 20
-239.500000000005
 30
0.0
 40
3.5
 41
0.0
 71
     5
 72
     1
  1
D
  7
CONVERTER_11
 73
     1
 44
1.20048019207683
  0
MTEXT
  5
3DD
330
71
100
AcDbEntity
  8
1
 62
     3
100
AcDbMText
 10
-226.84480452674
 20
-240.875000000005
 30
0.0
 40
2.5
 41
0.0
 71
     5
 72
     1
  1
DIN A4
  7
CONVERTER_11
 73
     1
 44
1.20048019207683
  0
MTEXT
  5
3DE
330
71
100
AcDbEntity
  8
1
 62
     2
100
AcDbMText
 10
-215.64480452674
 20
-254.500000000005
 30
0.0
 40
1.8
 41
0.0
 71
     1
 72
     1
  1
description
  7
CONVERTER_11
 73
     1
 44
1.20048019207683
  0
MTEXT
  5
3DF
330
71
100
AcDbEntity
  8
1
 62
     7
100
AcDbMText
 10
-170.0724022633644
 20
-258.7500000000048
 30
0.0
 40
3.0
 41
0.0
 71
     5
 72
     1
  1
MSBV 2,5-NS 35 YE
  7
CONVERTER_12
 73
     1
 44
1.20048019207683
  0
TEXT
  5
3E0
330
71
100
AcDbEntity
  8
1
 62
     2
100
AcDbText
 10
-228.6094957169264
 20
-260.7500000000051
 30
0.0
 40
1.8
  1
1
 41
0.9
  7
CONVERTER_11
100
AcDbText
  0
TEXT
  5
3E1
330
71
100
AcDbEntity
  8
1
 62
     2
100
AcDbText
 10
-243.3985395563979
 20
-260.799248653807
 30
0.0
 40
1.8
  1
1
 41
0.9
  7
CONVERTER_11
100
AcDbText
  0
TEXT
  5
3E2
330
71
100
AcDbEntity
  8
1
 62
     2
100
AcDbText
 10
-252.0448045267399
 20
-260.7590172149967
 30
0.0
 40
1.8
  1
page
 41
0.9
  7
CONVERTER_11
100
AcDbText
  0
TEXT
  5
3E3
330
71
100
AcDbEntity
  8
1
 62
     2
100
AcDbText
 10
-233.8448045267401
 20
-260.7590172149966
 30
0.0
 40
1.8
  1
of
 41
0.9
  7
CONVERTER_11
100
AcDbText
  0
MTEXT
  5
3E4
330
71
100
AcDbEntity
  8
1
 62
     3
100
AcDbMText
 10
-227.64182237513
 20
-75.20869184470621
 30
0.0
 40
1.8
 41
0.0
 71
     7
 72
     1
  3
Transfer or duplication of this document as well as the utilisation or\Pcommunication of its content are not permitted unless express consent\Pis granted. Violations give rise to claims for damages. All rights reserved\Pin case of patent, utility mo
  1
del or design patent registrations.
  7
CONVERTER_11
 73
     1
 44
0.99639855942377
  0
MTEXT
  5
3E5
330
71
100
AcDbEntity
  8
1
 62
     3
100
AcDbMText
 10
-410.4949322139181
 20
-75.20869184470621
 30
0.0
 40
1.8
 41
0.0
 71
     7
 72
     1
  3
Weitergabe sowie Vervielf\U+00e4ltigung dieses Dokuments, Verwertung und \PMitteilung seines Inhalts sind verboten, soweit nicht ausdr\U+00fccklich gestattet. \PZuwiderhandlungen verpflichten zu Schadenersatz. Alle Rechte f\U+00fcr den Fall\Pder Pat
  1
ent-, Gebrauchsmuster- oder Designeintragung vorbehalten.
  7
CONVERTER_11
 73
     1
 44
0.99639855942377
  0
HATCH
  5
3E6
330
71
100
AcDbEntity
  8
1
  6
Continuous
 62
     2
100
AcDbHatch
 10
0.0
 20
0.0
 30
0.0
210
0.0
220
0.0
230
1.0
  2
_USER
 70
     0
 71
     1
 91
        1
 92
        1
 93
       14
 72
     2
 10
-240.8035752508172
 20
-253.1795952380834
 40
1.205656168390944
 50
164.9381082228765
 51
195.0618917770948
 73
     1
 72
     2
 10
-240.3844474073544
 20
-253.0668048760486
 40
1.639695123939387
 50
195.0618917770896
 51
275.1581447696395
 73
     1
 72
     2
 10
-240.6733035020903
 20
-249.866914292827
 40
4.852596863498138
 50
275.1581447696249
 51
285.9799912583529
 73
     1
 72
     1
 10
-239.3373755849725
 20
-254.5319965986278
 11
-239.3373755849725
 21
-253.6594795918246
 72
     2
 10
-240.5154306269974
 20
-251.7691288726747
 40
2.227384008972737
 50
58.0690910500407
 51
71.55192388186722
 73
     0
 72
     2
 10
-240.0972628933366
 20
-253.0226746487119
 40
0.9059297849849192
 50
71.55192388184153
 51
113.372277888129
 73
     0
 72
     2
 10
-240.2537029260386
 20
-253.3846666674219
 40
0.5115800601948034
 50
113.3722778881726
 51
151.4785267423044
 73
     0
 72
     2
 10
-239.8763456679583
 20
-253.1795952380834
 40
0.9410597353332545
 50
151.4785267422943
 51
208.5214732577331
 73
     0
 72
     2
 10
-240.2537029260386
 20
-252.9745238087444
 40
0.5115800601948779
 50
208.5214732576956
 51
246.6277221118009
 73
     0
 72
     2
 10
-240.0972628933366
 20
-253.336515827455
 40
0.9059297849853228
 50
246.627722111871
 51
288.4480761181465
 73
     0
 72
     2
 10
-240.5154306269974
 20
-254.5900616034916
 40
2.227384008973478
 50
288.4480761181328
 51
301.9309089499592
 73
     0
 72
     1
 10
-239.3373755849725
 20
-252.6997108843417
 11
-239.3373755849725
 21
-251.8271938775384
 72
     2
 10
-240.6733035020903
 20
-256.4922761833393
 40
4.852596863498068
 50
74.02000874164739
 51
84.84185523037506
 73
     1
 72
     2
 10
-240.3844474073544
 20
-253.2923856001183
 40
1.639695123940507
 50
84.84185523036236
 51
164.9381082228864
 73
     1
 97
       14
330
3BB
330
2D4
330
38A
330
3BA
330
38B
330
38C
330
3B9
330
3B8
330
3B7
330
2D5
330
38D
330
38E
330
38F
330
390
 75
     1
 76
     0
 52
45.0
 41
0.1
 77
     0
 78
     1
 53
45.0
 43
0.0
 44
0.0
 45
-0.0707106781186548
 46
0.0707106781186548
 79
     0
 98
        1
 10
0.0
 20
0.0
  0
HATCH
  5
3E7
330
71
100
AcDbEntity
  8
1
  6
Continuous
 62
     2
100
AcDbHatch
 10
0.0
 20
0.0
 30
0.0
210
0.0
220
0.0
230
1.0
  2
_USER
 70
     0
 71
     1
 91
        1
 92
        1
 93
       14
 72
     2
 10
-240.8035752508172
 20
-253.1795952380834
 40
1.205656168390944
 50
164.9381082228765
 51
195.0618917770948
 73
     1
 72
     2
 10
-240.3844474073544
 20
-253.0668048760486
 40
1.639695123939387
 50
195.0618917770896
 51
275.1581447696395
 73
     1
 72
     2
 10
-240.6733035020903
 20
-249.866914292827
 40
4.852596863498138
 50
275.1581447696249
 51
285.9799912583529
 73
     1
 72
     1
 10
-239.3373755849725
 20
-254.5319965986278
 11
-239.3373755849725
 21
-253.6594795918246
 72
     2
 10
-240.5154306269974
 20
-251.7691288726747
 40
2.227384008972737
 50
58.0690910500407
 51
71.55192388186722
 73
     0
 72
     2
 10
-240.0972628933366
 20
-253.0226746487119
 40
0.9059297849849192
 50
71.55192388184153
 51
113.372277888129
 73
     0
 72
     2
 10
-240.2537029260386
 20
-253.3846666674219
 40
0.5115800601948034
 50
113.3722778881726
 51
151.4785267423044
 73
     0
 72
     2
 10
-239.8763456679583
 20
-253.1795952380834
 40
0.9410597353332545
 50
151.4785267422943
 51
208.5214732577331
 73
     0
 72
     2
 10
-240.2537029260386
 20
-252.9745238087444
 40
0.5115800601948779
 50
208.5214732576956
 51
246.6277221118009
 73
     0
 72
     2
 10
-240.0972628933366
 20
-253.336515827455
 40
0.9059297849853228
 50
246.627722111871
 51
288.4480761181465
 73
     0
 72
     2
 10
-240.5154306269974
 20
-254.5900616034916
 40
2.227384008973478
 50
288.4480761181328
 51
301.9309089499592
 73
     0
 72
     1
 10
-239.3373755849725
 20
-252.6997108843417
 11
-239.3373755849725
 21
-251.8271938775384
 72
     2
 10
-240.6733035020903
 20
-256.4922761833393
 40
4.852596863498068
 50
74.02000874164739
 51
84.84185523037506
 73
     1
 72
     2
 10
-240.3844474073544
 20
-253.2923856001183
 40
1.639695123940507
 50
84.84185523036236
 51
164.9381082228864
 73
     1
 97
       14
330
3BB
330
2D4
330
38A
330
3BA
330
38B
330
38C
330
3B9
330
3B8
330
3B7
330
2D5
330
38D
330
38E
330
38F
330
390
 75
     1
 76
     0
 52
45.0
 41
0.1
 77
     0
 78
     1
 53
45.0
 43
0.0
 44
0.0
 45
-0.0707106781186548
 46
0.0707106781186548
 79
     0
 98
        1
 10
0.0
 20
0.0
  0
HATCH
  5
3E8
330
71
100
AcDbEntity
  8
1
  6
Continuous
 62
     2
100
AcDbHatch
 10
0.0
 20
0.0
 30
0.0
210
0.0
220
0.0
230
1.0
  2
_USER
 70
     0
 71
     1
 91
        1
 92
        1
 93
       18
 72
     2
 10
-224.2817459281015
 20
-253.2923856001183
 40
1.639695123940214
 50
90.0
 51
164.938108222895
 73
     1
 72
     2
 10
-224.7008737715631
 20
-253.1795952380834
 40
1.205656168393002
 50
164.9381082229028
 51
195.0618917770959
 73
     1
 72
     2
 10
-224.2817459281015
 20
-253.0668048760486
 40
1.639695123940448
 50
195.0618917771012
 51
275.1581447696762
 73
     1
 72
     2
 10
-224.5706020228373
 20
-249.866914292827
 40
4.852596863498825
 50
275.1581447696364
 51
285.9799912583387
 73
     1
 72
     1
 10
-223.2346741057206
 20
-254.5319965986284
 11
-223.2346741057206
 21
-253.6594795918251
 72
     2
 10
-224.4127291477445
 20
-251.7691288726753
 40
2.227384008972746
 50
58.06909105006029
 51
71.55192388186651
 73
     0
 72
     2
 10
-223.9945614140826
 20
-253.0226746487119
 40
0.9059297849852801
 50
71.55192388191827
 51
113.3722778881817
 73
     0
 72
     2
 10
-224.1510014467857
 20
-253.3846666674219
 40
0.5115800601960215
 50
113.3722778881551
 51
151.4785267423134
 73
     0
 72
     2
 10
-223.7736441887043
 20
-253.1795952380834
 40
0.9410597353348924
 50
151.4785267423305
 51
208.5214732576376
 73
     0
 72
     2
 10
-224.1510014467857
 20
-252.9745238087444
 40
0.5115800601944143
 50
208.5214732575775
 51
250.6628567805147
 73
     0
 72
     2
 10
-224.004331448682
 20
-253.3924787891273
 40
0.9545230068260935
 50
250.662856780568
 51
270.0
 73
     0
 72
     1
 10
-224.004331448682
 20
-252.4379557823012
 11
-222.9006921491139
 21
-252.4379557823012
 72
     1
 10
-222.9006921491139
 20
-252.4379557823012
 11
-222.9006921491139
 21
-254.7064999999887
 72
     1
 10
-222.9006921491139
 20
-254.7064999999887
 11
-221.7078994469462
 21
-254.7064999999887
 72
     1
 10
-221.7078994469462
 20
-254.7064999999887
 11
-221.7078994469462
 21
-252.4379557823012
 72
     1
 10
-221.7078994469462
 20
-252.4379557823012
 11
-220.8968004094728
 21
-252.4379557823012
 72
     1
 10
-220.8968004094728
 20
-252.4379557823012
 11
-220.8968004094728
 21
-251.6526904761776
 72
     1
 10
-220.8968004094728
 20
-251.6526904761776
 11
-224.2817459281015
 21
-251.6526904761781
 97
       18
330
33A
330
339
330
338
330
337
330
33C
330
2D6
330
3B4
330
395
330
3B3
330
396
330
3B2
330
3B1
330
2D7
330
3B0
330
3AF
330
397
330
398
330
33B
 75
     1
 76
     0
 52
45.0
 41
0.1
 77
     0
 78
     1
 53
45.0
 43
0.0
 44
0.0
 45
-0.0707106781186548
 46
0.0707106781186548
 79
     0
 98
        1
 10
0.0
 20
0.0
  0
HATCH
  5
3E9
330
71
100
AcDbEntity
  8
1
  6
Continuous
 62
     2
100
AcDbHatch
 10
0.0
 20
0.0
 30
0.0
210
0.0
220
0.0
230
1.0
  2
_USER
 70
     0
 71
     1
 91
        1
 92
        1
 93
       18
 72
     2
 10
-224.2817459281015
 20
-253.2923856001183
 40
1.639695123940214
 50
90.0
 51
164.938108222895
 73
     1
 72
     2
 10
-224.7008737715631
 20
-253.1795952380834
 40
1.205656168393002
 50
164.9381082229028
 51
195.0618917770959
 73
     1
 72
     2
 10
-224.2817459281015
 20
-253.0668048760486
 40
1.639695123940448
 50
195.0618917771012
 51
275.1581447696762
 73
     1
 72
     2
 10
-224.5706020228373
 20
-249.866914292827
 40
4.852596863498825
 50
275.1581447696364
 51
285.9799912583387
 73
     1
 72
     1
 10
-223.2346741057206
 20
-254.5319965986284
 11
-223.2346741057206
 21
-253.6594795918251
 72
     2
 10
-224.4127291477445
 20
-251.7691288726753
 40
2.227384008972746
 50
58.06909105006029
 51
71.55192388186651
 73
     0
 72
     2
 10
-223.9945614140826
 20
-253.0226746487119
 40
0.9059297849852801
 50
71.55192388191827
 51
113.3722778881817
 73
     0
 72
     2
 10
-224.1510014467857
 20
-253.3846666674219
 40
0.5115800601960215
 50
113.3722778881551
 51
151.4785267423134
 73
     0
 72
     2
 10
-223.7736441887043
 20
-253.1795952380834
 40
0.9410597353348924
 50
151.4785267423305
 51
208.5214732576376
 73
     0
 72
     2
 10
-224.1510014467857
 20
-252.9745238087444
 40
0.5115800601944143
 50
208.5214732575775
 51
250.6628567805147
 73
     0
 72
     2
 10
-224.004331448682
 20
-253.3924787891273
 40
0.9545230068260935
 50
250.662856780568
 51
270.0
 73
     0
 72
     1
 10
-224.004331448682
 20
-252.4379557823012
 11
-222.9006921491139
 21
-252.4379557823012
 72
     1
 10
-222.9006921491139
 20
-252.4379557823012
 11
-222.9006921491139
 21
-254.7064999999887
 72
     1
 10
-222.9006921491139
 20
-254.7064999999887
 11
-221.7078994469462
 21
-254.7064999999887
 72
     1
 10
-221.7078994469462
 20
-254.7064999999887
 11
-221.7078994469462
 21
-252.4379557823012
 72
     1
 10
-221.7078994469462
 20
-252.4379557823012
 11
-220.8968004094728
 21
-252.4379557823012
 72
     1
 10
-220.8968004094728
 20
-252.4379557823012
 11
-220.8968004094728
 21
-251.6526904761776
 72
     1
 10
-220.8968004094728
 20
-251.6526904761776
 11
-224.2817459281015
 21
-251.6526904761781
 97
       18
330
33A
330
339
330
338
330
337
330
33C
330
2D6
330
3B4
330
395
330
3B3
330
396
330
3B2
330
3B1
330
2D7
330
3B0
330
3AF
330
397
330
398
330
33B
 75
     1
 76
     0
 52
45.0
 41
0.1
 77
     0
 78
     1
 53
45.0
 43
0.0
 44
0.0
 45
-0.0707106781186548
 46
0.0707106781186548
 79
     0
 98
        1
 10
0.0
 20
0.0
  0
HATCH
  5
3EA
330
71
100
AcDbEntity
  8
1
  6
Continuous
 62
     2
100
AcDbHatch
 10
0.0
 20
0.0
 30
0.0
210
0.0
220
0.0
230
1.0
  2
_USER
 70
     0
 71
     1
 91
        4
 92
        1
 93
        8
 72
     2
 10
-248.3839050247945
 20
-248.7177446154052
 40
0.4242446153837989
 50
90.0
 51
180.0
 73
     1
 72
     1
 10
-248.8081496401773
 20
-248.7177446154052
 11
-248.8081496401773
 21
-254.2822553846054
 72
     2
 10
-248.3839050247945
 20
-254.2822553846054
 40
0.4242446153828041
 50
180.0
 51
270.0
 73
     1
 72
     1
 10
-248.3839050247945
 20
-254.7064999999887
 11
-242.9105929340777
 21
-254.7064999999887
 72
     2
 10
-242.9105929340777
 20
-254.2822553846054
 40
0.4242446153832873
 50
270.0
 51
360.0
 73
     1
 72
     1
 10
-242.4863483186938
 20
-254.2822553846054
 11
-242.4863483186938
 21
-248.7177446154052
 72
     2
 10
-242.9105929340777
 20
-248.7177446154052
 40
0.4242446153838841
 50
0.0
 51
90.0
 73
     1
 72
     1
 10
-242.9105929340777
 20
-248.2935000000214
 11
-248.3839050247945
 21
-248.2935000000214
 97
        8
330
3A8
330
305
330
3A7
330
306
330
39E
330
303
330
3A9
330
304
 92
       16
 93
        1
 72
     2
 10
-245.764319374277
 20
-251.0366268437607
 40
0.4709789327785074
 50
0.0
 51
360.0
 73
     1
 97
        1
330
3BC
 92
       16
 93
        8
 72
     2
 10
-245.7405043596042
 20
-251.0366268437607
 40
0.911848150144459
 50
295.3740086781764
 51
424.6259913218075
 73
     1
 72
     2
 10
-245.2144616615163
 20
-249.9274852437929
 40
0.315716923076792
 50
115.3740086783518
 51
180.0
 73
     0
 72
     1
 10
-245.5301785845931
 20
-249.9274852437929
 11
-245.5301785845931
 21
-249.3219499552861
 72
     2
 10
-245.2144616615163
 20
-249.3219499552861
 40
0.3157169230760711
 50
180.0
 51
269.8110329574541
 73
     0
 72
     2
 10
-245.2088455262063
 20
-251.0247849028552
 40
2.018561131933266
 50
269.8110329575858
 51
450.1889670424142
 73
     0
 72
     2
 10
-245.2144616615163
 20
-252.7276198504242
 40
0.315716923076792
 50
90.18896704254585
 51
180.0
 73
     0
 72
     1
 10
-245.5301785845931
 20
-252.7276198504242
 11
-245.5301785845931
 21
-252.1457684437291
 72
     2
 10
-245.2144616615163
 20
-252.1457684437291
 40
0.3157169230765328
 50
180.0
 51
244.6259913216482
 73
     0
 97
        8
330
3B6
330
392
330
33E
330
3B5
330
393
330
394
330
33D
330
391
 92
       16
 93
       12
 72
     1
 10
-247.790010348048
 20
-253.9939444444318
 11
-246.3141770870384
 21
-253.9939444444318
 72
     2
 10
-246.3141770870384
 20
-253.6782275213551
 40
0.3157169230767067
 50
270.0
 51
360.0
 73
     1
 72
     1
 10
-245.9984601639618
 20
-253.6782275213551
 11
-245.9984601639618
 21
-252.1474565898235
 72
     2
 10
-246.3141770870384
 20
-252.1474565898235
 40
0.315716923076593
 50
0.0
 51
64.80558935146027
 73
     1
 72
     2
 10
-245.7915926394634
 20
-251.0366268437607
 40
0.9118975235576147
 50
115.1944106485122
 51
244.8055893514718
 73
     0
 72
     2
 10
-246.3141770870384
 20
-249.9257970976985
 40
0.3157169230761203
 50
295.1944106485397
 51
360.0
 73
     1
 72
     1
 10
-245.9984601639618
 20
-249.9257970976985
 11
-245.9984601639618
 21
-249.321772478638
 72
     2
 10
-246.3141770870384
 20
-249.321772478638
 40
0.315716923076593
 50
0.0
 51
90.0
 73
     1
 72
     1
 10
-246.3141770870384
 20
-249.0060555555618
 11
-247.790010348048
 21
-249.0060555555618
 72
     2
 10
-247.790010348048
 20
-249.321772478638
 40
0.3157169230761951
 50
90.0
 51
180.0
 73
     1
 72
     1
 10
-248.1057272711237
 20
-249.321772478638
 11
-248.1057272711237
 21
-253.6782275213551
 72
     2
 10
-247.790010348048
 20
-253.6782275213551
 40
0.3157169230756836
 50
180.0
 51
270.0
 73
     1
 97
       12
330
30A
330
39B
330
309
330
3AC
330
308
330
3AB
330
39C
330
39D
330
307
330
3AA
330
302
330
3AD
 75
     1
 76
     0
 52
45.0
 41
0.1
 77
     0
 78
     1
 53
45.0
 43
0.0
 44
0.0
 45
-0.0707106781186548
 46
0.0707106781186548
 79
     0
 98
        1
 10
0.0
 20
0.0
  0
HATCH
  5
3EB
330
71
100
AcDbEntity
  8
1
  6
Continuous
 62
     2
100
AcDbHatch
 10
0.0
 20
0.0
 30
0.0
210
0.0
220
0.0
230
1.0
  2
_USER
 70
     0
 71
     1
 91
        4
 92
        1
 93
        8
 72
     2
 10
-248.3839050247945
 20
-248.7177446154052
 40
0.4242446153837989
 50
90.0
 51
180.0
 73
     1
 72
     1
 10
-248.8081496401773
 20
-248.7177446154052
 11
-248.8081496401773
 21
-254.2822553846054
 72
     2
 10
-248.3839050247945
 20
-254.2822553846054
 40
0.4242446153828041
 50
180.0
 51
270.0
 73
     1
 72
     1
 10
-248.3839050247945
 20
-254.7064999999887
 11
-242.9105929340777
 21
-254.7064999999887
 72
     2
 10
-242.9105929340777
 20
-254.2822553846054
 40
0.4242446153832873
 50
270.0
 51
360.0
 73
     1
 72
     1
 10
-242.4863483186938
 20
-254.2822553846054
 11
-242.4863483186938
 21
-248.7177446154052
 72
     2
 10
-242.9105929340777
 20
-248.7177446154052
 40
0.4242446153838841
 50
0.0
 51
90.0
 73
     1
 72
     1
 10
-242.9105929340777
 20
-248.2935000000214
 11
-248.3839050247945
 21
-248.2935000000214
 97
        8
330
3A8
330
305
330
3A7
330
306
330
39E
330
303
330
3A9
330
304
 92
       16
 93
        1
 72
     2
 10
-245.764319374277
 20
-251.0366268437607
 40
0.4709789327785074
 50
0.0
 51
360.0
 73
     1
 97
        1
330
3BC
 92
       16
 93
        8
 72
     2
 10
-245.7405043596042
 20
-251.0366268437607
 40
0.911848150144459
 50
295.3740086781764
 51
424.6259913218075
 73
     1
 72
     2
 10
-245.2144616615163
 20
-249.9274852437929
 40
0.315716923076792
 50
115.3740086783518
 51
180.0
 73
     0
 72
     1
 10
-245.5301785845931
 20
-249.9274852437929
 11
-245.5301785845931
 21
-249.3219499552861
 72
     2
 10
-245.2144616615163
 20
-249.3219499552861
 40
0.3157169230760711
 50
180.0
 51
269.8110329574541
 73
     0
 72
     2
 10
-245.2088455262063
 20
-251.0247849028552
 40
2.018561131933266
 50
269.8110329575858
 51
450.1889670424142
 73
     0
 72
     2
 10
-245.2144616615163
 20
-252.7276198504242
 40
0.315716923076792
 50
90.18896704254585
 51
180.0
 73
     0
 72
     1
 10
-245.5301785845931
 20
-252.7276198504242
 11
-245.5301785845931
 21
-252.1457684437291
 72
     2
 10
-245.2144616615163
 20
-252.1457684437291
 40
0.3157169230765328
 50
180.0
 51
244.6259913216482
 73
     0
 97
        8
330
3B6
330
392
330
33E
330
3B5
330
393
330
394
330
33D
330
391
 92
       16
 93
       12
 72
     1
 10
-247.790010348048
 20
-253.9939444444318
 11
-246.3141770870384
 21
-253.9939444444318
 72
     2
 10
-246.3141770870384
 20
-253.6782275213551
 40
0.3157169230767067
 50
270.0
 51
360.0
 73
     1
 72
     1
 10
-245.9984601639618
 20
-253.6782275213551
 11
-245.9984601639618
 21
-252.1474565898235
 72
     2
 10
-246.3141770870384
 20
-252.1474565898235
 40
0.315716923076593
 50
0.0
 51
64.80558935146027
 73
     1
 72
     2
 10
-245.7915926394634
 20
-251.0366268437607
 40
0.9118975235576147
 50
115.1944106485122
 51
244.8055893514718
 73
     0
 72
     2
 10
-246.3141770870384
 20
-249.9257970976985
 40
0.3157169230761203
 50
295.1944106485397
 51
360.0
 73
     1
 72
     1
 10
-245.9984601639618
 20
-249.9257970976985
 11
-245.9984601639618
 21
-249.321772478638
 72
     2
 10
-246.3141770870384
 20
-249.321772478638
 40
0.315716923076593
 50
0.0
 51
90.0
 73
     1
 72
     1
 10
-246.3141770870384
 20
-249.0060555555618
 11
-247.790010348048
 21
-249.0060555555618
 72
     2
 10
-247.790010348048
 20
-249.321772478638
 40
0.3157169230761951
 50
90.0
 51
180.0
 73
     1
 72
     1
 10
-248.1057272711237
 20
-249.321772478638
 11
-248.1057272711237
 21
-253.6782275213551
 72
     2
 10
-247.790010348048
 20
-253.6782275213551
 40
0.3157169230756836
 50
180.0
 51
270.0
 73
     1
 97
       12
330
30A
330
39B
330
309
330
3AC
330
308
330
3AB
330
39C
330
39D
330
307
330
3AA
330
302
330
3AD
 75
     1
 76
     0
 52
45.0
 41
0.1
 77
     0
 78
     1
 53
45.0
 43
0.0
 44
0.0
 45
-0.0707106781186548
 46
0.0707106781186548
 79
     0
 98
        1
 10
0.0
 20
0.0
  0
HATCH
  5
3EC
330
71
100
AcDbEntity
  8
1
  6
Continuous
 62
     2
100
AcDbHatch
 10
0.0
 20
0.0
 30
0.0
210
0.0
220
0.0
230
1.0
  2
_USER
 70
     0
 71
     1
 91
        2
 92
        1
 93
       12
 72
     2
 10
-233.7087410208052
 20
-249.8204047619091
 40
1.526904761905882
 50
90.0
 51
270.0
 73
     1
 72
     1
 10
-233.7087410208052
 20
-251.3473095238144
 11
-230.5584212970242
 21
-251.3473095238144
 72
     1
 10
-230.5584212970242
 20
-251.3473095238144
 11
-230.5584212970242
 21
-250.6492959183719
 72
     1
 10
-230.5584212970242
 20
-250.6492959183719
 11
-231.8943491234519
 21
-250.6492959183719
 72
     1
 10
-231.8943491234519
 20
-250.6492959183719
 11
-231.8943491234519
 21
-250.1694115646302
 72
     1
 10
-231.8943491234519
 20
-250.1694115646302
 11
-230.5584212970242
 21
-250.1694115646302
 72
     1
 10
-230.5584212970242
 20
-250.1694115646302
 11
-230.5584212970242
 21
-249.4713979591879
 72
     1
 10
-230.5584212970242
 20
-249.4713979591879
 11
-231.8943491234519
 21
-249.4713979591879
 72
     1
 10
-231.8943491234519
 20
-249.4713979591879
 11
-231.8943491234519
 21
-248.9915136054462
 72
     1
 10
-231.8943491234519
 20
-248.9915136054462
 11
-230.5584212970242
 21
-248.9915136054462
 72
     1
 10
-230.5584212970242
 20
-248.9915136054462
 11
-230.5584212970242
 21
-248.2935000000032
 72
     1
 10
-230.5584212970242
 20
-248.2935000000032
 11
-233.7087410208052
 21
-248.2935000000032
 97
       12
330
2F9
330
2F3
330
31A
330
319
330
318
330
317
330
2F4
330
2F5
330
2F6
330
2F7
330
399
330
2F8
 92
       16
 93
        4
 72
     2
 10
-233.2927289742937
 20
-249.8204047619091
 40
0.7717997786796724
 50
141.8795802028404
 51
218.1204197971562
 73
     1
 72
     2
 10
-233.49246901064
 20
-249.9771359400295
 40
0.5179085730134372
 50
218.1204197971511
 51
321.8795802028566
 73
     1
 72
     2
 10
-233.6922090469862
 20
-249.8204047619091
 40
0.7717997786796373
 50
321.8795802028437
 51
398.1204197971596
 73
     1
 72
     2
 10
-233.49246901064
 20
-249.6636735837886
 40
0.5179085730135266
 50
38.12041979714334
 51
141.8795802028489
 73
     1
 97
        4
330
3A6
330
3A5
330
3A0
330
39F
 75
     1
 76
     0
 52
45.0
 41
0.1
 77
     0
 78
     1
 53
45.0
 43
0.0
 44
0.0
 45
-0.0707106781186548
 46
0.0707106781186548
 79
     0
 98
        1
 10
0.0
 20
0.0
  0
HATCH
  5
3ED
330
71
100
AcDbEntity
  8
1
  6
Continuous
 62
     2
100
AcDbHatch
 10
0.0
 20
0.0
 30
0.0
210
0.0
220
0.0
230
1.0
  2
_USER
 70
     0
 71
     1
 91
        2
 92
        1
 93
       12
 72
     2
 10
-233.7087410208052
 20
-249.8204047619091
 40
1.526904761905882
 50
90.0
 51
270.0
 73
     1
 72
     1
 10
-233.7087410208052
 20
-251.3473095238144
 11
-230.5584212970242
 21
-251.3473095238144
 72
     1
 10
-230.5584212970242
 20
-251.3473095238144
 11
-230.5584212970242
 21
-250.6492959183719
 72
     1
 10
-230.5584212970242
 20
-250.6492959183719
 11
-231.8943491234519
 21
-250.6492959183719
 72
     1
 10
-231.8943491234519
 20
-250.6492959183719
 11
-231.8943491234519
 21
-250.1694115646302
 72
     1
 10
-231.8943491234519
 20
-250.1694115646302
 11
-230.5584212970242
 21
-250.1694115646302
 72
     1
 10
-230.5584212970242
 20
-250.1694115646302
 11
-230.5584212970242
 21
-249.4713979591879
 72
     1
 10
-230.5584212970242
 20
-249.4713979591879
 11
-231.8943491234519
 21
-249.4713979591879
 72
     1
 10
-231.8943491234519
 20
-249.4713979591879
 11
-231.8943491234519
 21
-248.9915136054462
 72
     1
 10
-231.8943491234519
 20
-248.9915136054462
 11
-230.5584212970242
 21
-248.9915136054462
 72
     1
 10
-230.5584212970242
 20
-248.9915136054462
 11
-230.5584212970242
 21
-248.2935000000032
 72
     1
 10
-230.5584212970242
 20
-248.2935000000032
 11
-233.7087410208052
 21
-248.2935000000032
 97
       12
330
2F9
330
2F3
330
31A
330
319
330
318
330
317
330
2F4
330
2F5
330
2F6
330
2F7
330
399
330
2F8
 92
       16
 93
        4
 72
     2
 10
-233.2927289742937
 20
-249.8204047619091
 40
0.7717997786796724
 50
141.8795802028404
 51
218.1204197971562
 73
     1
 72
     2
 10
-233.49246901064
 20
-249.9771359400295
 40
0.5179085730134372
 50
218.1204197971511
 51
321.8795802028566
 73
     1
 72
     2
 10
-233.6922090469862
 20
-249.8204047619091
 40
0.7717997786796373
 50
321.8795802028437
 51
398.1204197971596
 73
     1
 72
     2
 10
-233.49246901064
 20
-249.6636735837886
 40
0.5179085730135266
 50
38.12041979714334
 51
141.8795802028489
 73
     1
 97
        4
330
3A6
330
3A5
330
3A0
330
39F
 75
     1
 76
     0
 52
45.0
 41
0.1
 77
     0
 78
     1
 53
45.0
 43
0.0
 44
0.0
 45
-0.0707106781186548
 46
0.0707106781186548
 79
     0
 98
        1
 10
0.0
 20
0.0
  0
HATCH
  5
3EE
330
71
100
AcDbEntity
  8
1
  6
Continuous
 62
     2
100
AcDbHatch
 10
0.0
 20
0.0
 30
0.0
210
0.0
220
0.0
230
1.0
  2
_USER
 70
     0
 71
     1
 91
        2
 92
        1
 93
        4
 72
     2
 10
-237.7343563832668
 20
-253.1795952380834
 40
1.45803408365149
 50
117.5481481756624
 51
242.4518518243375
 73
     1
 72
     2
 10
-237.4534164914335
 20
-252.6410202277801
 40
2.065479772208509
 50
242.4518518243402
 51
297.5481481756871
 73
     1
 72
     2
 10
-237.1724765996002
 20
-253.1795952380834
 40
1.458034083652003
 50
297.548148175701
 51
422.451851824299
 73
     1
 72
     2
 10
-237.4534164914335
 20
-253.7181702483862
 40
2.065479772208568
 50
62.45185182430637
 51
117.5481481756664
 73
     1
 97
        4
330
3A4
330
3A1
330
3A3
330
3A2
 92
       16
 93
        4
 72
     2
 10
-237.4534164914335
 20
-253.0228640599629
 40
0.5179085730132998
 50
38.12041979714704
 51
141.8795802028588
 73
     1
 72
     2
 10
-237.2536764550874
 20
-253.1795952380834
 40
0.7717997786794633
 50
141.8795802028363
 51
218.1204197971687
 73
     1
 72
     2
 10
-237.4534164914335
 20
-253.3363264162034
 40
0.5179085730137354
 50
218.1204197971931
 51
321.879580202801
 73
     1
 72
     2
 10
-237.6531565277799
 20
-253.1795952380834
 40
0.7717997786796947
 50
321.8795802028417
 51
398.1204197971533
 73
     1
 97
        4
330
387
330
388
330
389
330
386
 75
     1
 76
     0
 52
45.0
 41
0.1
 77
     0
 78
     1
 53
45.0
 43
0.0
 44
0.0
 45
-0.0707106781186548
 46
0.0707106781186548
 79
     0
 98
        1
 10
0.0
 20
0.0
  0
HATCH
  5
3EF
330
71
100
AcDbEntity
  8
1
  6
Continuous
 62
     2
100
AcDbHatch
 10
0.0
 20
0.0
 30
0.0
210
0.0
220
0.0
230
1.0
  2
_USER
 70
     0
 71
     1
 91
        2
 92
        1
 93
        4
 72
     2
 10
-237.7343563832668
 20
-253.1795952380834
 40
1.45803408365149
 50
117.5481481756624
 51
242.4518518243375
 73
     1
 72
     2
 10
-237.4534164914335
 20
-252.6410202277801
 40
2.065479772208509
 50
242.4518518243402
 51
297.5481481756871
 73
     1
 72
     2
 10
-237.1724765996002
 20
-253.1795952380834
 40
1.458034083652003
 50
297.548148175701
 51
422.451851824299
 73
     1
 72
     2
 10
-237.4534164914335
 20
-253.7181702483862
 40
2.065479772208568
 50
62.45185182430637
 51
117.5481481756664
 73
     1
 97
        4
330
3A4
330
3A1
330
3A3
330
3A2
 92
       16
 93
        4
 72
     2
 10
-237.4534164914335
 20
-253.0228640599629
 40
0.5179085730132998
 50
38.12041979714704
 51
141.8795802028588
 73
     1
 72
     2
 10
-237.2536764550874
 20
-253.1795952380834
 40
0.7717997786794633
 50
141.8795802028363
 51
218.1204197971687
 73
     1
 72
     2
 10
-237.4534164914335
 20
-253.3363264162034
 40
0.5179085730137354
 50
218.1204197971931
 51
321.879580202801
 73
     1
 72
     2
 10
-237.6531565277799
 20
-253.1795952380834
 40
0.7717997786796947
 50
321.8795802028417
 51
398.1204197971533
 73
     1
 97
        4
330
387
330
388
330
389
330
386
 75
     1
 76
     0
 52
45.0
 41
0.1
 77
     0
 78
     1
 53
45.0
 43
0.0
 44
0.0
 45
-0.0707106781186548
 46
0.0707106781186548
 79
     0
 98
        1
 10
0.0
 20
0.0
  0
HATCH
  5
3F0
330
71
100
AcDbEntity
  8
1
  6
Continuous
 62
     2
100
AcDbHatch
 10
0.0
 20
0.0
 30
0.0
210
0.0
220
0.0
230
1.0
  2
_USER
 70
     0
 71
     1
 91
        2
 92
        1
 93
        6
 72
     1
 10
-242.009231237827
 20
-248.2935000000032
 11
-242.009231237827
 21
-251.3473095238144
 72
     1
 10
-242.009231237827
 20
-251.3473095238144
 11
-240.7687268275729
 21
-251.3473095238144
 72
     1
 10
-240.7687268275729
 20
-251.3473095238144
 11
-240.7687268275729
 21
-250.4042312826706
 72
     1
 10
-240.7687268275729
 20
-250.4042312826706
 11
-240.0099592397926
 21
-250.4042312826706
 72
     2
 10
-240.0099592397926
 20
-249.3488656413369
 40
1.055365641333708
 50
270.0
 51
450.0
 73
     1
 72
     1
 10
-240.0099592397926
 20
-248.2935000000032
 11
-242.009231237827
 21
-248.2935000000032
 97
        6
330
3AE
330
30B
330
301
330
300
330
30D
330
30C
 92
       16
 93
        4
 72
     1
 10
-240.451431766031
 20
-248.9566058454433
 11
-240.7687268275729
 21
-248.9566058454433
 72
     1
 10
-240.7687268275729
 20
-248.9566058454433
 11
-240.7687268275729
 21
-249.6623334947855
 72
     1
 10
-240.7687268275729
 20
-249.6623334947855
 11
-240.451431766031
 21
-249.6623334947855
 72
     2
 10
-240.451431766031
 20
-249.3094696701144
 40
0.3528638246711182
 50
270.0
 51
450.0
 73
     1
 97
        4
330
30E
330
2FF
330
30F
330
39A
 75
     1
 76
     0
 52
45.0
 41
0.1
 77
     0
 78
     1
 53
45.0
 43
0.0
 44
0.0
 45
-0.0707106781186548
 46
0.0707106781186548
 79
     0
 98
        1
 10
0.0
 20
0.0
  0
HATCH
  5
3F1
330
71
100
AcDbEntity
  8
1
  6
Continuous
 62
     2
100
AcDbHatch
 10
0.0
 20
0.0
 30
0.0
210
0.0
220
0.0
230
1.0
  2
_USER
 70
     0
 71
     1
 91
        2
 92
        1
 93
        6
 72
     1
 10
-242.009231237827
 20
-248.2935000000032
 11
-242.009231237827
 21
-251.3473095238144
 72
     1
 10
-242.009231237827
 20
-251.3473095238144
 11
-240.7687268275729
 21
-251.3473095238144
 72
     1
 10
-240.7687268275729
 20
-251.3473095238144
 11
-240.7687268275729
 21
-250.4042312826706
 72
     1
 10
-240.7687268275729
 20
-250.4042312826706
 11
-240.0099592397926
 21
-250.4042312826706
 72
     2
 10
-240.0099592397926
 20
-249.3488656413369
 40
1.055365641333708
 50
270.0
 51
450.0
 73
     1
 72
     1
 10
-240.0099592397926
 20
-248.2935000000032
 11
-242.009231237827
 21
-248.2935000000032
 97
        6
330
3AE
330
30B
330
301
330
300
330
30D
330
30C
 92
       16
 93
        4
 72
     1
 10
-240.451431766031
 20
-248.9566058454433
 11
-240.7687268275729
 21
-248.9566058454433
 72
     1
 10
-240.7687268275729
 20
-248.9566058454433
 11
-240.7687268275729
 21
-249.6623334947855
 72
     1
 10
-240.7687268275729
 20
-249.6623334947855
 11
-240.451431766031
 21
-249.6623334947855
 72
     2
 10
-240.451431766031
 20
-249.3094696701144
 40
0.3528638246711182
 50
270.0
 51
450.0
 73
     1
 97
        4
330
30E
330
2FF
330
30F
330
39A
 75
     1
 76
     0
 52
45.0
 41
0.1
 77
     0
 78
     1
 53
45.0
 43
0.0
 44
0.0
 45
-0.0707106781186548
 46
0.0707106781186548
 79
     0
 98
        1
 10
0.0
 20
0.0
  0
HATCH
  5
3F2
330
71
100
AcDbEntity
  8
1
  6
Continuous
 62
     2
100
AcDbHatch
 10
0.0
 20
0.0
 30
0.0
210
0.0
220
0.0
230
1.0
  2
_USER
 70
     0
 71
     1
 91
        1
 92
        1
 93
       12
 72
     1
 10
-222.3949480433938
 20
-248.2935000000032
 11
-220.9922238256466
 21
-248.2935000000032
 72
     1
 10
-220.9922238256466
 20
-248.2935000000032
 11
-222.2947534564131
 21
-249.7664505300394
 72
     1
 10
-222.2947534564131
 20
-249.7664505300394
 11
-220.8968004094728
 21
-251.3473095238144
 72
     1
 10
-220.8968004094728
 20
-251.3473095238144
 11
-222.2995246272211
 21
-251.3473095238144
 72
     1
 10
-222.2995246272211
 20
-251.3473095238144
 11
-222.9961155652866
 21
-250.5595777385207
 72
     1
 10
-222.9961155652866
 20
-250.5595777385207
 11
-223.6927065033523
 21
-251.3473095238144
 72
     1
 10
-223.6927065033523
 20
-251.3473095238144
 11
-225.0954307211005
 21
-251.3473095238144
 72
     1
 10
-225.0954307211005
 20
-251.3473095238144
 11
-223.6974776741602
 21
-249.7664505300394
 72
     1
 10
-223.6974776741602
 20
-249.7664505300394
 11
-225.0000073049277
 21
-248.2935000000032
 72
     1
 10
-225.0000073049277
 20
-248.2935000000032
 11
-223.5972830871784
 21
-248.2935000000032
 72
     1
 10
-223.5972830871784
 20
-248.2935000000032
 11
-222.9961155652866
 21
-248.9733233215587
 72
     1
 10
-222.9961155652866
 20
-248.9733233215587
 11
-222.3949480433938
 21
-248.2935000000032
 97
       12
330
2DA
330
333
330
332
330
331
330
330
330
2DB
330
2DC
330
2D8
330
2D9
330
336
330
335
330
334
 75
     1
 76
     0
 52
45.0
 41
0.1
 77
     0
 78
     1
 53
45.0
 43
0.0
 44
0.0
 45
-0.0707106781186548
 46
0.0707106781186548
 79
     0
 98
        1
 10
0.0
 20
0.0
  0
HATCH
  5
3F3
330
71
100
AcDbEntity
  8
1
  6
Continuous
 62
     2
100
AcDbHatch
 10
0.0
 20
0.0
 30
0.0
210
0.0
220
0.0
230
1.0
  2
_USER
 70
     0
 71
     1
 91
        1
 92
        1
 93
       12
 72
     1
 10
-222.3949480433938
 20
-248.2935000000032
 11
-220.9922238256466
 21
-248.2935000000032
 72
     1
 10
-220.9922238256466
 20
-248.2935000000032
 11
-222.2947534564131
 21
-249.7664505300394
 72
     1
 10
-222.2947534564131
 20
-249.7664505300394
 11
-220.8968004094728
 21
-251.3473095238144
 72
     1
 10
-220.8968004094728
 20
-251.3473095238144
 11
-222.2995246272211
 21
-251.3473095238144
 72
     1
 10
-222.2995246272211
 20
-251.3473095238144
 11
-222.9961155652866
 21
-250.5595777385207
 72
     1
 10
-222.9961155652866
 20
-250.5595777385207
 11
-223.6927065033523
 21
-251.3473095238144
 72
     1
 10
-223.6927065033523
 20
-251.3473095238144
 11
-225.0954307211005
 21
-251.3473095238144
 72
     1
 10
-225.0954307211005
 20
-251.3473095238144
 11
-223.6974776741602
 21
-249.7664505300394
 72
     1
 10
-223.6974776741602
 20
-249.7664505300394
 11
-225.0000073049277
 21
-248.2935000000032
 72
     1
 10
-225.0000073049277
 20
-248.2935000000032
 11
-223.5972830871784
 21
-248.2935000000032
 72
     1
 10
-223.5972830871784
 20
-248.2935000000032
 11
-222.9961155652866
 21
-248.9733233215587
 72
     1
 10
-222.9961155652866
 20
-248.9733233215587
 11
-222.3949480433938
 21
-248.2935000000032
 97
       12
330
2DA
330
333
330
332
330
331
330
330
330
2DB
330
2DC
330
2D8
330
2D9
330
336
330
335
330
334
 75
     1
 76
     0
 52
45.0
 41
0.1
 77
     0
 78
     1
 53
45.0
 43
0.0
 44
0.0
 45
-0.0707106781186548
 46
0.0707106781186548
 79
     0
 98
        1
 10
0.0
 20
0.0
  0
HATCH
  5
3F4
330
71
100
AcDbEntity
  8
1
  6
Continuous
 62
     2
100
AcDbHatch
 10
0.0
 20
0.0
 30
0.0
210
0.0
220
0.0
230
1.0
  2
_USER
 70
     0
 71
     1
 91
        1
 92
        1
 93
        4
 72
     1
 10
-225.2147099913174
 20
-248.2935000000032
 11
-225.2147099913174
 21
-251.3473095238144
 72
     1
 10
-225.2147099913174
 20
-251.3473095238144
 11
-226.4552144015703
 21
-251.3473095238144
 72
     1
 10
-226.4552144015703
 20
-251.3473095238144
 11
-226.4552144015703
 21
-248.2935000000032
 72
     1
 10
-226.4552144015703
 20
-248.2935000000032
 11
-225.2147099913174
 21
-248.2935000000032
 97
        4
330
32E
330
2DD
330
32D
330
32F
 75
     1
 76
     0
 52
45.0
 41
0.1
 77
     0
 78
     1
 53
45.0
 43
0.0
 44
0.0
 45
-0.0707106781186548
 46
0.0707106781186548
 79
     0
 98
        1
 10
0.0
 20
0.0
  0
HATCH
  5
3F5
330
71
100
AcDbEntity
  8
1
  6
Continuous
 62
     2
100
AcDbHatch
 10
0.0
 20
0.0
 30
0.0
210
0.0
220
0.0
230
1.0
  2
_USER
 70
     0
 71
     1
 91
        1
 92
        1
 93
        4
 72
     1
 10
-225.2147099913174
 20
-248.2935000000032
 11
-225.2147099913174
 21
-251.3473095238144
 72
     1
 10
-225.2147099913174
 20
-251.3473095238144
 11
-226.4552144015703
 21
-251.3473095238144
 72
     1
 10
-226.4552144015703
 20
-251.3473095238144
 11
-226.4552144015703
 21
-248.2935000000032
 72
     1
 10
-226.4552144015703
 20
-248.2935000000032
 11
-225.2147099913174
 21
-248.2935000000032
 97
        4
330
32E
330
2DD
330
32D
330
32F
 75
     1
 76
     0
 52
45.0
 41
0.1
 77
     0
 78
     1
 53
45.0
 43
0.0
 44
0.0
 45
-0.0707106781186548
 46
0.0707106781186548
 79
     0
 98
        1
 10
0.0
 20
0.0
  0
HATCH
  5
3F6
330
71
100
AcDbEntity
  8
1
  6
Continuous
 62
     2
100
AcDbHatch
 10
0.0
 20
0.0
 30
0.0
210
0.0
220
0.0
230
1.0
  2
_USER
 70
     0
 71
     1
 91
        2
 92
        1
 93
        8
 72
     1
 10
-225.6051539948494
 20
-254.7064999999887
 11
-226.8456584051033
 21
-254.7064999999887
 72
     1
 10
-226.8456584051033
 20
-254.7064999999887
 11
-227.0571384585791
 21
-254.1655394557708
 72
     1
 10
-227.0571384585791
 20
-254.1655394557708
 11
-228.1895800352529
 21
-254.1655394557708
 72
     1
 10
-228.1895800352529
 20
-254.1655394557708
 11
-228.4010600887287
 21
-254.7064999999887
 72
     1
 10
-228.4010600887287
 20
-254.7064999999887
 11
-229.6415644989817
 21
-254.7064999999887
 72
     1
 10
-229.6415644989817
 20
-254.7064999999887
 11
-228.2436114520424
 21
-251.6526904761776
 72
     1
 10
-228.2436114520424
 20
-251.6526904761776
 11
-227.0031070417897
 21
-251.6526904761776
 72
     1
 10
-227.0031070417897
 20
-251.6526904761776
 11
-225.6051539948494
 21
-254.7064999999887
 97
        8
330
329
330
2E3
330
328
330
32B
330
2E0
330
32A
330
2E1
330
2E2
 92
       16
 93
        3
 72
     1
 10
-227.9235244841079
 20
-253.4849761904642
 11
-227.3231940097254
 21
-253.4849761904642
 72
     1
 10
-227.3231940097254
 20
-253.4849761904642
 11
-227.6233592469155
 21
-252.7171612244775
 72
     1
 10
-227.6233592469155
 20
-252.7171612244775
 11
-227.9235244841079
 21
-253.4849761904642
 97
        3
330
2DF
330
2DE
330
32C
 75
     1
 76
     0
 52
45.0
 41
0.1
 77
     0
 78
     1
 53
45.0
 43
0.0
 44
0.0
 45
-0.0707106781186548
 46
0.0707106781186548
 79
     0
 98
        1
 10
0.0
 20
0.0
  0
HATCH
  5
3F7
330
71
100
AcDbEntity
  8
1
  6
Continuous
 62
     2
100
AcDbHatch
 10
0.0
 20
0.0
 30
0.0
210
0.0
220
0.0
230
1.0
  2
_USER
 70
     0
 71
     1
 91
        2
 92
        1
 93
        8
 72
     1
 10
-225.6051539948494
 20
-254.7064999999887
 11
-226.8456584051033
 21
-254.7064999999887
 72
     1
 10
-226.8456584051033
 20
-254.7064999999887
 11
-227.0571384585791
 21
-254.1655394557708
 72
     1
 10
-227.0571384585791
 20
-254.1655394557708
 11
-228.1895800352529
 21
-254.1655394557708
 72
     1
 10
-228.1895800352529
 20
-254.1655394557708
 11
-228.4010600887287
 21
-254.7064999999887
 72
     1
 10
-228.4010600887287
 20
-254.7064999999887
 11
-229.6415644989817
 21
-254.7064999999887
 72
     1
 10
-229.6415644989817
 20
-254.7064999999887
 11
-228.2436114520424
 21
-251.6526904761776
 72
     1
 10
-228.2436114520424
 20
-251.6526904761776
 11
-227.0031070417897
 21
-251.6526904761776
 72
     1
 10
-227.0031070417897
 20
-251.6526904761776
 11
-225.6051539948494
 21
-254.7064999999887
 97
        8
330
329
330
2E3
330
328
330
32B
330
2E0
330
32A
330
2E1
330
2E2
 92
       16
 93
        3
 72
     1
 10
-227.9235244841079
 20
-253.4849761904642
 11
-227.3231940097254
 21
-253.4849761904642
 72
     1
 10
-227.3231940097254
 20
-253.4849761904642
 11
-227.6233592469155
 21
-252.7171612244775
 72
     1
 10
-227.6233592469155
 20
-252.7171612244775
 11
-227.9235244841079
 21
-253.4849761904642
 97
        3
330
2DF
330
2DE
330
32C
 75
     1
 76
     0
 52
45.0
 41
0.1
 77
     0
 78
     1
 53
45.0
 43
0.0
 44
0.0
 45
-0.0707106781186548
 46
0.0707106781186548
 79
     0
 98
        1
 10
0.0
 20
0.0
  0
HATCH
  5
3F8
330
71
100
AcDbEntity
  8
1
  6
Continuous
 62
     2
100
AcDbHatch
 10
0.0
 20
0.0
 30
0.0
210
0.0
220
0.0
230
1.0
  2
_USER
 70
     0
 71
     1
 91
        1
 92
        1
 93
        8
 72
     1
 10
-231.7990766381639
 20
-251.6526904761776
 11
-231.7990766381639
 21
-252.4379557823012
 72
     1
 10
-231.7990766381639
 20
-252.4379557823012
 11
-230.9879776006893
 21
-252.4379557823012
 72
     1
 10
-230.9879776006893
 20
-252.4379557823012
 11
-230.9879776006893
 21
-254.7064999999887
 72
     1
 10
-230.9879776006893
 20
-254.7064999999887
 11
-229.7951848985228
 21
-254.7064999999887
 72
     1
 10
-229.7951848985228
 20
-254.7064999999887
 11
-229.7951848985228
 21
-252.4379557823012
 72
     1
 10
-229.7951848985228
 20
-252.4379557823012
 11
-228.9840858610503
 21
-252.4379557823012
 72
     1
 10
-228.9840858610503
 20
-252.4379557823012
 11
-228.9840858610503
 21
-251.6526904761776
 72
     1
 10
-228.9840858610503
 20
-251.6526904761776
 11
-231.7990766381639
 21
-251.6526904761776
 97
        8
330
325
330
324
330
323
330
2E4
330
2E5
330
327
330
2E6
330
326
 75
     1
 76
     0
 52
45.0
 41
0.1
 77
     0
 78
     1
 53
45.0
 43
0.0
 44
0.0
 45
-0.0707106781186548
 46
0.0707106781186548
 79
     0
 98
        1
 10
0.0
 20
0.0
  0
HATCH
  5
3F9
330
71
100
AcDbEntity
  8
1
  6
Continuous
 62
     2
100
AcDbHatch
 10
0.0
 20
0.0
 30
0.0
210
0.0
220
0.0
230
1.0
  2
_USER
 70
     0
 71
     1
 91
        1
 92
        1
 93
        8
 72
     1
 10
-231.7990766381639
 20
-251.6526904761776
 11
-231.7990766381639
 21
-252.4379557823012
 72
     1
 10
-231.7990766381639
 20
-252.4379557823012
 11
-230.9879776006893
 21
-252.4379557823012
 72
     1
 10
-230.9879776006893
 20
-252.4379557823012
 11
-230.9879776006893
 21
-254.7064999999887
 72
     1
 10
-230.9879776006893
 20
-254.7064999999887
 11
-229.7951848985228
 21
-254.7064999999887
 72
     1
 10
-229.7951848985228
 20
-254.7064999999887
 11
-229.7951848985228
 21
-252.4379557823012
 72
     1
 10
-229.7951848985228
 20
-252.4379557823012
 11
-228.9840858610503
 21
-252.4379557823012
 72
     1
 10
-228.9840858610503
 20
-252.4379557823012
 11
-228.9840858610503
 21
-251.6526904761776
 72
     1
 10
-228.9840858610503
 20
-251.6526904761776
 11
-231.7990766381639
 21
-251.6526904761776
 97
        8
330
325
330
324
330
323
330
2E4
330
2E5
330
327
330
2E6
330
326
 75
     1
 76
     0
 52
45.0
 41
0.1
 77
     0
 78
     1
 53
45.0
 43
0.0
 44
0.0
 45
-0.0707106781186548
 46
0.0707106781186548
 79
     0
 98
        1
 10
0.0
 20
0.0
  0
HATCH
  5
3FA
330
71
100
AcDbEntity
  8
1
  6
Continuous
 62
     2
100
AcDbHatch
 10
0.0
 20
0.0
 30
0.0
210
0.0
220
0.0
230
1.0
  2
_USER
 70
     0
 71
     1
 91
        1
 92
        1
 93
       10
 72
     1
 10
-229.1270700544248
 20
-248.2935000000032
 11
-230.3198627565913
 21
-248.2935000000032
 72
     1
 10
-230.3198627565913
 20
-248.2935000000032
 11
-230.3198627565913
 21
-251.3473095238144
 72
     1
 10
-230.3198627565913
 20
-251.3473095238144
 11
-229.1270700544248
 21
-251.3473095238144
 72
     1
 10
-229.1270700544248
 20
-251.3473095238144
 11
-229.1270700544248
 21
-250.0385340136097
 72
     1
 10
-229.1270700544248
 20
-250.0385340136097
 11
-227.8865656441708
 21
-251.3473095238144
 72
     1
 10
-227.8865656441708
 20
-251.3473095238144
 11
-226.6937729420042
 21
-251.3473095238144
 72
     1
 10
-226.6937729420042
 20
-251.3473095238144
 11
-226.6937729420042
 21
-248.2935000000032
 72
     1
 10
-226.6937729420042
 20
-248.2935000000032
 11
-227.8865656441708
 21
-248.2935000000032
 72
     1
 10
-227.8865656441708
 20
-248.2935000000032
 11
-227.8865656441708
 21
-249.6022755102084
 72
     1
 10
-227.8865656441708
 20
-249.6022755102084
 11
-229.1270700544248
 21
-248.2935000000032
 97
       10
330
31F
330
2E9
330
2EA
330
2EB
330
2EC
330
322
330
2E7
330
321
330
320
330
2E8
 75
     1
 76
     0
 52
45.0
 41
0.1
 77
     0
 78
     1
 53
45.0
 43
0.0
 44
0.0
 45
-0.0707106781186548
 46
0.0707106781186548
 79
     0
 98
        1
 10
0.0
 20
0.0
  0
HATCH
  5
3FB
330
71
100
AcDbEntity
  8
1
  6
Continuous
 62
     2
100
AcDbHatch
 10
0.0
 20
0.0
 30
0.0
210
0.0
220
0.0
230
1.0
  2
_USER
 70
     0
 71
     1
 91
        1
 92
        1
 93
       10
 72
     1
 10
-229.1270700544248
 20
-248.2935000000032
 11
-230.3198627565913
 21
-248.2935000000032
 72
     1
 10
-230.3198627565913
 20
-248.2935000000032
 11
-230.3198627565913
 21
-251.3473095238144
 72
     1
 10
-230.3198627565913
 20
-251.3473095238144
 11
-229.1270700544248
 21
-251.3473095238144
 72
     1
 10
-229.1270700544248
 20
-251.3473095238144
 11
-229.1270700544248
 21
-250.0385340136097
 72
     1
 10
-229.1270700544248
 20
-250.0385340136097
 11
-227.8865656441708
 21
-251.3473095238144
 72
     1
 10
-227.8865656441708
 20
-251.3473095238144
 11
-226.6937729420042
 21
-251.3473095238144
 72
     1
 10
-226.6937729420042
 20
-251.3473095238144
 11
-226.6937729420042
 21
-248.2935000000032
 72
     1
 10
-226.6937729420042
 20
-248.2935000000032
 11
-227.8865656441708
 21
-248.2935000000032
 72
     1
 10
-227.8865656441708
 20
-248.2935000000032
 11
-227.8865656441708
 21
-249.6022755102084
 72
     1
 10
-227.8865656441708
 20
-249.6022755102084
 11
-229.1270700544248
 21
-248.2935000000032
 97
       10
330
31F
330
2E9
330
2EA
330
2EB
330
2EC
330
322
330
2E7
330
321
330
320
330
2E8
 75
     1
 76
     0
 52
45.0
 41
0.1
 77
     0
 78
     1
 53
45.0
 43
0.0
 44
0.0
 45
-0.0707106781186548
 46
0.0707106781186548
 79
     0
 98
        1
 10
0.0
 20
0.0
  0
HATCH
  5
3FC
330
71
100
AcDbEntity
  8
1
  6
Continuous
 62
     2
100
AcDbHatch
 10
0.0
 20
0.0
 30
0.0
210
0.0
220
0.0
230
1.0
  2
_USER
 70
     0
 71
     1
 91
        1
 92
        1
 93
       10
 72
     1
 10
-234.3755088748434
 20
-251.6526904761776
 11
-235.568301577011
 21
-251.6526904761776
 72
     1
 10
-235.568301577011
 20
-251.6526904761776
 11
-235.568301577011
 21
-254.7064999999887
 72
     1
 10
-235.568301577011
 20
-254.7064999999887
 11
-234.3755088748434
 21
-254.7064999999887
 72
     1
 10
-234.3755088748434
 20
-254.7064999999887
 11
-234.3755088748434
 21
-253.3977244897841
 72
     1
 10
-234.3755088748434
 20
-253.3977244897841
 11
-233.1350044645905
 21
-254.7064999999887
 72
     1
 10
-233.1350044645905
 20
-254.7064999999887
 11
-231.9422117624241
 21
-254.7064999999887
 72
     1
 10
-231.9422117624241
 20
-254.7064999999887
 11
-231.9422117624241
 21
-251.6526904761776
 72
     1
 10
-231.9422117624241
 20
-251.6526904761776
 11
-233.1350044645905
 21
-251.6526904761776
 72
     1
 10
-233.1350044645905
 20
-251.6526904761776
 11
-233.1350044645905
 21
-252.9614659863827
 72
     1
 10
-233.1350044645905
 20
-252.9614659863827
 11
-234.3755088748434
 21
-251.6526904761776
 97
       10
330
2EE
330
2EF
330
2F0
330
31C
330
2F1
330
2F2
330
31B
330
31E
330
31D
330
2ED
 75
     1
 76
     0
 52
45.0
 41
0.1
 77
     0
 78
     1
 53
45.0
 43
0.0
 44
0.0
 45
-0.0707106781186548
 46
0.0707106781186548
 79
     0
 98
        1
 10
0.0
 20
0.0
  0
HATCH
  5
3FD
330
71
100
AcDbEntity
  8
1
  6
Continuous
 62
     2
100
AcDbHatch
 10
0.0
 20
0.0
 30
0.0
210
0.0
220
0.0
230
1.0
  2
_USER
 70
     0
 71
     1
 91
        1
 92
        1
 93
       10
 72
     1
 10
-234.3755088748434
 20
-251.6526904761776
 11
-235.568301577011
 21
-251.6526904761776
 72
     1
 10
-235.568301577011
 20
-251.6526904761776
 11
-235.568301577011
 21
-254.7064999999887
 72
     1
 10
-235.568301577011
 20
-254.7064999999887
 11
-234.3755088748434
 21
-254.7064999999887
 72
     1
 10
-234.3755088748434
 20
-254.7064999999887
 11
-234.3755088748434
 21
-253.3977244897841
 72
     1
 10
-234.3755088748434
 20
-253.3977244897841
 11
-233.1350044645905
 21
-254.7064999999887
 72
     1
 10
-233.1350044645905
 20
-254.7064999999887
 11
-231.9422117624241
 21
-254.7064999999887
 72
     1
 10
-231.9422117624241
 20
-254.7064999999887
 11
-231.9422117624241
 21
-251.6526904761776
 72
     1
 10
-231.9422117624241
 20
-251.6526904761776
 11
-233.1350044645905
 21
-251.6526904761776
 72
     1
 10
-233.1350044645905
 20
-251.6526904761776
 11
-233.1350044645905
 21
-252.9614659863827
 72
     1
 10
-233.1350044645905
 20
-252.9614659863827
 11
-234.3755088748434
 21
-251.6526904761776
 97
       10
330
2EE
330
2EF
330
2F0
330
31C
330
2F1
330
2F2
330
31B
330
31E
330
31D
330
2ED
 75
     1
 76
     0
 52
45.0
 41
0.1
 77
     0
 78
     1
 53
45.0
 43
0.0
 44
0.0
 45
-0.0707106781186548
 46
0.0707106781186548
 79
     0
 98
        1
 10
0.0
 20
0.0
  0
HATCH
  5
3FE
330
71
100
AcDbEntity
  8
1
  6
Continuous
 62
     2
100
AcDbHatch
 10
0.0
 20
0.0
 30
0.0
210
0.0
220
0.0
230
1.0
  2
_USER
 70
     0
 71
     1
 91
        1
 92
        1
 93
       12
 72
     1
 10
-235.3773038137788
 20
-248.2935000000032
 11
-235.3773038137788
 21
-251.3473095238144
 72
     1
 10
-235.3773038137788
 20
-251.3473095238144
 11
-236.5700965159452
 21
-251.3473095238144
 72
     1
 10
-236.5700965159452
 20
-251.3473095238144
 11
-236.5700965159452
 21
-250.2130374149706
 72
     1
 10
-236.5700965159452
 20
-250.2130374149706
 11
-237.6197540938527
 21
-250.2130374149706
 72
     1
 10
-237.6197540938527
 20
-250.2130374149706
 11
-237.6197540938527
 21
-251.3473095238144
 72
     1
 10
-237.6197540938527
 20
-251.3473095238144
 11
-238.8125467960193
 21
-251.3473095238144
 72
     1
 10
-238.8125467960193
 20
-251.3473095238144
 11
-238.8125467960193
 21
-248.2935000000032
 72
     1
 10
-238.8125467960193
 20
-248.2935000000032
 11
-237.6197540938527
 21
-248.2935000000032
 72
     1
 10
-237.6197540938527
 20
-248.2935000000032
 11
-237.6197540938527
 21
-249.3623333333378
 72
     1
 10
-237.6197540938527
 20
-249.3623333333378
 11
-236.5700965159452
 21
-249.3623333333378
 72
     1
 10
-236.5700965159452
 20
-249.3623333333378
 11
-236.5700965159452
 21
-248.2935000000032
 72
     1
 10
-236.5700965159452
 20
-248.2935000000032
 11
-235.3773038137788
 21
-248.2935000000032
 97
       12
330
316
330
315
330
314
330
2FC
330
2FD
330
313
330
2FE
330
312
330
311
330
310
330
2FA
330
2FB
 75
     1
 76
     0
 52
45.0
 41
0.1
 77
     0
 78
     1
 53
45.0
 43
0.0
 44
0.0
 45
-0.0707106781186548
 46
0.0707106781186548
 79
     0
 98
        1
 10
0.0
 20
0.0
  0
HATCH
  5
3FF
330
71
100
AcDbEntity
  8
1
  6
Continuous
 62
     2
100
AcDbHatch
 10
0.0
 20
0.0
 30
0.0
210
0.0
220
0.0
230
1.0
  2
_USER
 70
     0
 71
     1
 91
        1
 92
        1
 93
       12
 72
     1
 10
-235.3773038137788
 20
-248.2935000000032
 11
-235.3773038137788
 21
-251.3473095238144
 72
     1
 10
-235.3773038137788
 20
-251.3473095238144
 11
-236.5700965159452
 21
-251.3473095238144
 72
     1
 10
-236.5700965159452
 20
-251.3473095238144
 11
-236.5700965159452
 21
-250.2130374149706
 72
     1
 10
-236.5700965159452
 20
-250.2130374149706
 11
-237.6197540938527
 21
-250.2130374149706
 72
     1
 10
-237.6197540938527
 20
-250.2130374149706
 11
-237.6197540938527
 21
-251.3473095238144
 72
     1
 10
-237.6197540938527
 20
-251.3473095238144
 11
-238.8125467960193
 21
-251.3473095238144
 72
     1
 10
-238.8125467960193
 20
-251.3473095238144
 11
-238.8125467960193
 21
-248.2935000000032
 72
     1
 10
-238.8125467960193
 20
-248.2935000000032
 11
-237.6197540938527
 21
-248.2935000000032
 72
     1
 10
-237.6197540938527
 20
-248.2935000000032
 11
-237.6197540938527
 21
-249.3623333333378
 72
     1
 10
-237.6197540938527
 20
-249.3623333333378
 11
-236.5700965159452
 21
-249.3623333333378
 72
     1
 10
-236.5700965159452
 20
-249.3623333333378
 11
-236.5700965159452
 21
-248.2935000000032
 72
     1
 10
-236.5700965159452
 20
-248.2935000000032
 11
-235.3773038137788
 21
-248.2935000000032
 97
       12
330
316
330
315
330
314
330
2FC
330
2FD
330
313
330
2FE
330
312
330
311
330
310
330
2FA
330
2FB
 75
     1
 76
     0
 52
45.0
 41
0.1
 77
     0
 78
     1
 53
45.0
 43
0.0
 44
0.0
 45
-0.0707106781186548
 46
0.0707106781186548
 79
     0
 98
        1
 10
0.0
 20
0.0
  0
ENDBLK
  5
73
330
71
100
AcDbEntity
  8
0
100
AcDbBlockEnd
  0
BLOCK
  5
75
330
74
100
AcDbEntity
  8
0
100
AcDbBlockBegin
  2
_punkt
 70
     0
 10
-123.4999999999899
 20
-262.000000000005
 30
0.0
  3
_punkt
  1

  0
LINE
  5
400
330
74
100
AcDbEntity
  8
1
  6
Continuous
 62
     2
100
AcDbLine
 10
-123.4999999999899
 20
-262.000000000005
 30
0.0
 11
-123.4999999999899
 21
-267.0000000000051
 31
0.0
  0
LINE
  5
401
330
74
100
AcDbEntity
  8
1
  6
Continuous
 62
     2
100
AcDbLine
 10
-123.4999999999899
 20
-262.000000000005
 30
0.0
 11
-118.4999999999909
 21
-262.000000000005
 31
0.0
  0
ENDBLK
  5
76
330
74
100
AcDbEntity
  8
0
100
AcDbBlockEnd
  0
BLOCK
  5
7A
330
77
100
AcDbEntity
  8
0
100
AcDbBlockBegin
  2
A4I_CS
 70
     0
 10
-123.4999999999899
 20
-267.0000000000051
 30
0.0
  3
A4I_CS
  1

  0
INSERT
  5
78
330
77
100
AcDbEntity
  8
1
100
AcDbBlockReference
  2
_rahmen
 10
-123.4999999999899
 20
-267.0000000000051
 30
0.0
  0
INSERT
  5
79
330
77
100
AcDbEntity
  8
1
100
AcDbBlockReference
  2
_punkt
 10
-123.4999999999899
 20
-262.000000000005
 30
0.0
  0
ENDBLK
  5
7B
330
77
100
AcDbEntity
  8
0
100
AcDbBlockEnd
  0
BLOCK
  5
84
330
7C
100
AcDbEntity
  8
0
100
AcDbBlockBegin
  2
1
 70
     0
 10
0.0
 20
0.0
 30
0.0
  3
1
  1

  0
INSERT
  5
7D
330
7C
100
AcDbEntity
  8
0
100
AcDbBlockReference
  2
Allg1
 10
-168.9999999999995
 20
-195.0
 30
0.0
 41
2.0
 42
2.0
 43
2.0
  0
INSERT
  5
7E
330
7C
100
AcDbEntity
  8
0
100
AcDbBlockReference
  2
Drfsicht1
 10
-307.876842
 20
-202.314643
 30
0.0
 41
2.0
 42
2.0
 43
2.0
  0
INSERT
  5
7F
330
7C
100
AcDbEntity
  8
0
100
AcDbBlockReference
  2
Rckans1
 10
-178.1231579999998
 20
-121.0000000000001
 30
0.0
 41
2.0
 42
2.0
 43
2.0
  0
INSERT
  5
80
330
7C
100
AcDbEntity
  8
0
100
AcDbBlockReference
  2
SA_Links1
 10
-244.0
 20
-121.0
 30
0.0
 41
2.0
 42
2.0
 43
2.0
  0
INSERT
  5
81
330
7C
100
AcDbEntity
  8
0
100
AcDbBlockReference
  2
SA_Rechts1
 10
-391.64546
 20
-121.0
 30
0.0
 41
2.0
 42
2.0
 43
2.0
  0
INSERT
  5
82
330
7C
100
AcDbEntity
  8
0
100
AcDbBlockReference
  2
Vordans1
 10
-307.876842
 20
-121.0
 30
0.0
 41
2.0
 42
2.0
 43
2.0
  0
INSERT
  5
83
330
7C
100
AcDbEntity
  8
0
100
AcDbBlockReference
  2
A4I_CS
 10
-123.4999999999899
 20
-267.0000000000051
 30
0.0
  0
ENDBLK
  5
85
330
7C
100
AcDbEntity
  8
0
100
AcDbBlockEnd
  0
BLOCK
  5
18C
330
184
100
AcDbEntity
  8
0
100
AcDbBlockBegin
  2
*D17
 70
     1
 10
0.0
 20
0.0
 30
0.0
  3
*D17
  1

  0
LINE
  5
185
330
184
100
AcDbEntity
  8
1
  6
Continuous
 62
     2
100
AcDbLine
 10
-180.2884211592465
 20
-98.58232145231845
 30
0.0
 11
-180.2884211592465
 21
-103.732321452319
 31
0.0
  0
LINE
  5
186
330
184
100
AcDbEntity
  8
1
  6
Continuous
 62
     2
100
AcDbLine
 10
-180.2884211592465
 20
-103.732321452319
 30
0.0
 11
-180.2884211592465
 21
-109.1716461747603
 31
0.0
  0
LINE
  5
187
330
184
100
AcDbEntity
  8
1
  6
Continuous
 62
     2
100
AcDbLine
 10
-175.2884211592464
 20
-98.58232145231845
 30
0.0
 11
-181.0384211592465
 21
-98.58232145231845
 31
0.0
  0
LINE
  5
188
330
184
100
AcDbEntity
  8
1
  6
Continuous
 62
     2
100
AcDbLine
 10
-175.2884211592464
 20
-103.732321452319
 30
0.0
 11
-181.0384211592465
 21
-103.732321452319
 31
0.0
  0
SOLID
  5
189
330
184
100
AcDbEntity
  8
1
 62
     2
100
AcDbTrace
 10
-180.0580292884686
 20
-100.3323214523185
 30
0.0
 11
-180.5188130300244
 21
-100.3323214523185
 31
0.0
 12
-180.2884211592465
 22
-98.58232145231845
 32
0.0
 13
-180.2884211592465
 23
-98.58232145231845
 33
0.0
  0
SOLID
  5
18A
330
184
100
AcDbEntity
  8
1
 62
     2
100
AcDbTrace
 10
-180.5188130300244
 20
-101.982321452319
 30
0.0
 11
-180.0580292884686
 21
-101.982321452319
 31
0.0
 12
-180.2884211592465
 22
-103.732321452319
 32
0.0
 13
-180.2884211592465
 23
-103.732321452319
 33
0.0
  0
MTEXT
  5
18B
330
184
100
AcDbEntity
  8
1
 62
     3
100
AcDbMText
 10
-181.2134211592465
 20
-109.1716461747603
 30
0.0
 40
1.75
 41
0.0
 71
     7
 72
     1
  1
5,15
  7
CONVERTER_11
 11
0.0
 21
1.0
 31
0.0
 73
     1
 44
0.60024009603842
  0
ENDBLK
  5
18D
330
184
100
AcDbEntity
  8
0
100
AcDbBlockEnd
  0
BLOCK
  5
299
330
292
100
AcDbEntity
  8
0
100
AcDbBlockBegin
  2
*D18
 70
     1
 10
0.0
 20
0.0
 30
0.0
  3
*D18
  1

  0
LINE
  5
293
330
292
100
AcDbEntity
  8
1
  6
Continuous
 62
     2
100
AcDbLine
 10
-153.0884211592424
 20
-80.74999993597015
 30
0.0
 11
-135.588421159244
 21
-80.74999993597015
 31
0.0
  0
LINE
  5
294
330
292
100
AcDbEntity
  8
1
  6
Continuous
 62
     2
100
AcDbLine
 10
-153.0884211592424
 20
-75.74999993597015
 30
0.0
 11
-153.0884211592424
 21
-81.49999993597015
 31
0.0
  0
LINE
  5
295
330
292
100
AcDbEntity
  8
1
  6
Continuous
 62
     2
100
AcDbLine
 10
-135.588421159244
 20
-70.84999993595156
 30
0.0
 11
-135.588421159244
 21
-81.49999993597015
 31
0.0
  0
SOLID
  5
296
330
292
100
AcDbEntity
  8
1
 62
     2
100
AcDbTrace
 10
-151.3384211592424
 20
-80.51960806519222
 30
0.0
 11
-151.3384211592424
 21
-80.98039180674809
 31
0.0
 12
-153.0884211592424
 22
-80.74999993597015
 32
0.0
 13
-153.0884211592424
 23
-80.74999993597015
 33
0.0
  0
SOLID
  5
297
330
292
100
AcDbEntity
  8
1
 62
     2
100
AcDbTrace
 10
-137.338421159244
 20
-80.98039180674809
 30
0.0
 11
-137.338421159244
 21
-80.51960806519222
 31
0.0
 12
-135.588421159244
 22
-80.74999993597015
 32
0.0
 13
-135.588421159244
 23
-80.74999993597015
 33
0.0
  0
MTEXT
  5
298
330
292
100
AcDbEntity
  8
1
 62
     3
100
AcDbMText
 10
-146.5709766916277
 20
-79.82499993597014
 30
0.0
 40
1.75
 41
0.0
 71
     7
 72
     1
  1
17,5
  7
CONVERTER_11
 11
0.9999999999970619
 21
2.424068405545306E-6
 31
0.0
 73
     1
 44
0.60024009603842
  0
ENDBLK
  5
29A
330
292
100
AcDbEntity
  8
0
100
AcDbBlockEnd
  0
BLOCK
  5
2A4
330
29D
100
AcDbEntity
  8
0
100
AcDbBlockBegin
  2
*D19
 70
     1
 10
0.0
 20
0.0
 30
0.0
  3
*D19
  1

  0
LINE
  5
29E
330
29D
100
AcDbEntity
  8
1
  6
Continuous
 62
     2
100
AcDbLine
 10
-132.5884211592445
 20
-84.74999993597015
 30
0.0
 11
-153.0884211592424
 21
-84.74999993597015
 31
0.0
  0
LINE
  5
29F
330
29D
100
AcDbEntity
  8
1
  6
Continuous
 62
     2
100
AcDbLine
 10
-132.5884211592445
 20
-69.74999993595878
 30
0.0
 11
-132.5884211592445
 21
-85.49999993597015
 31
0.0
  0
LINE
  5
2A0
330
29D
100
AcDbEntity
  8
1
  6
Continuous
 62
     2
100
AcDbLine
 10
-153.0884211592424
 20
-75.74999993597015
 30
0.0
 11
-153.0884211592424
 21
-85.49999993597015
 31
0.0
  0
SOLID
  5
2A1
330
29D
100
AcDbEntity
  8
1
 62
     2
100
AcDbTrace
 10
-134.3384211592445
 20
-84.98039180674809
 30
0.0
 11
-134.3384211592445
 21
-84.51960806519222
 31
0.0
 12
-132.5884211592445
 22
-84.74999993597015
 32
0.0
 13
-132.5884211592445
 23
-84.74999993597015
 33
0.0
  0
SOLID
  5
2A2
330
29D
100
AcDbEntity
  8
1
 62
     2
100
AcDbTrace
 10
-151.3384211592424
 20
-84.51960806519222
 30
0.0
 11
-151.3384211592424
 21
-84.98039180674809
 31
0.0
 12
-153.0884211592424
 22
-84.74999993597015
 32
0.0
 13
-153.0884211592424
 23
-84.74999993597015
 33
0.0
  0
MTEXT
  5
2A3
330
29D
100
AcDbEntity
  8
1
 62
     3
100
AcDbMText
 10
-144.12882051018
 20
-83.82499993597014
 30
0.0
 40
1.75
 41
0.0
 71
     7
 72
     1
  1
20,5
  7
CONVERTER_11
 11
0.9999999999970619
 21
2.424068405545306E-6
 31
0.0
 73
     1
 44
0.60024009603842
  0
ENDBLK
  5
2A5
330
29D
100
AcDbEntity
  8
0
100
AcDbBlockEnd
  0
BLOCK
  5
2AF
330
2A8
100
AcDbEntity
  8
0
100
AcDbBlockBegin
  2
*D20
 70
     1
 10
0.0
 20
0.0
 30
0.0
  3
*D20
  1

  0
LINE
  5
2A9
330
2A8
100
AcDbEntity
  8
1
  6
Continuous
 62
     2
100
AcDbLine
 10
-175.2884211592443
 20
-88.74999993597015
 30
0.0
 11
-132.5884211592445
 21
-88.74999993597015
 31
0.0
  0
LINE
  5
2AA
330
2A8
100
AcDbEntity
  8
1
  6
Continuous
 62
     2
100
AcDbLine
 10
-175.2884211592443
 20
-75.74999993597245
 30
0.0
 11
-175.2884211592443
 21
-89.49999993597015
 31
0.0
  0
LINE
  5
2AB
330
2A8
100
AcDbEntity
  8
1
  6
Continuous
 62
     2
100
AcDbLine
 10
-132.5884211592445
 20
-69.74999993595881
 30
0.0
 11
-132.5884211592445
 21
-89.49999993597015
 31
0.0
  0
SOLID
  5
2AC
330
2A8
100
AcDbEntity
  8
1
 62
     2
100
AcDbTrace
 10
-173.5384211592443
 20
-88.51960806519222
 30
0.0
 11
-173.5384211592443
 21
-88.98039180674809
 31
0.0
 12
-175.2884211592443
 22
-88.74999993597015
 32
0.0
 13
-175.2884211592443
 23
-88.74999993597015
 33
0.0
  0
SOLID
  5
2AD
330
2A8
100
AcDbEntity
  8
1
 62
     2
100
AcDbTrace
 10
-134.3384211592445
 20
-88.98039180674809
 30
0.0
 11
-134.3384211592445
 21
-88.51960806519222
 31
0.0
 12
-132.5884211592445
 22
-88.74999993597015
 32
0.0
 13
-132.5884211592445
 23
-88.74999993597015
 33
0.0
  0
MTEXT
  5
2AE
330
2A8
100
AcDbEntity
  8
1
 62
     3
100
AcDbMText
 10
-155.038408363963
 20
-87.82499993597014
 30
0.0
 40
1.75
 41
0.0
 71
     7
 72
     1
  1
42,7
  7
CONVERTER_11
 11
0.9999999999970619
 21
2.424068405545306E-6
 31
0.0
 73
     1
 44
0.60024009603842
  0
ENDBLK
  5
2B0
330
2A8
100
AcDbEntity
  8
0
100
AcDbBlockEnd
  0
BLOCK
  5
2BA
330
2B3
100
AcDbEntity
  8
0
100
AcDbBlockBegin
  2
*D21
 70
     1
 10
0.0
 20
0.0
 30
0.0
  3
*D21
  1

  0
LINE
  5
2B4
330
2B3
100
AcDbEntity
  8
1
  6
Continuous
 62
     2
100
AcDbLine
 10
-180.2884211592465
 20
-69.74999993596904
 30
0.0
 11
-180.2884211592465
 21
-45.24999993596056
 31
0.0
  0
LINE
  5
2B5
330
2B3
100
AcDbEntity
  8
1
  6
Continuous
 62
     2
100
AcDbLine
 10
-168.7355068886294
 20
-69.74999993596904
 30
0.0
 11
-181.0384211592465
 21
-69.74999993596904
 31
0.0
  0
LINE
  5
2B6
330
2B3
100
AcDbEntity
  8
1
  6
Continuous
 62
     2
100
AcDbLine
 10
-156.9884211592502
 20
-45.24999993596056
 30
0.0
 11
-181.0384211592465
 21
-45.24999993596056
 31
0.0
  0
SOLID
  5
2B7
330
2B3
100
AcDbEntity
  8
1
 62
     2
100
AcDbTrace
 10
-180.5188130300244
 20
-67.99999993596904
 30
0.0
 11
-180.0580292884686
 21
-67.99999993596904
 31
0.0
 12
-180.2884211592465
 22
-69.74999993596904
 32
0.0
 13
-180.2884211592465
 23
-69.74999993596904
 33
0.0
  0
SOLID
  5
2B8
330
2B3
100
AcDbEntity
  8
1
 62
     2
100
AcDbTrace
 10
-180.0580292884686
 20
-46.99999993596056
 30
0.0
 11
-180.5188130300244
 21
-46.99999993596056
 31
0.0
 12
-180.2884211592465
 22
-45.24999993596056
 32
0.0
 13
-180.2884211592465
 23
-45.24999993596056
 33
0.0
  0
MTEXT
  5
2B9
330
2B3
100
AcDbEntity
  8
1
 62
     3
100
AcDbMText
 10
-181.2134211592465
 20
-59.78906490231401
 30
0.0
 40
1.75
 41
0.0
 71
     7
 72
     1
  1
24,5
  7
CONVERTER_11
 11
0.0
 21
1.0
 31
0.0
 73
     1
 44
0.60024009603842
  0
ENDBLK
  5
2BB
330
2B3
100
AcDbEntity
  8
0
100
AcDbBlockEnd
  0
BLOCK
  5
2C5
330
2BE
100
AcDbEntity
  8
0
100
AcDbBlockBegin
  2
*D22
 70
     1
 10
0.0
 20
0.0
 30
0.0
  3
*D22
  1

  0
LINE
  5
2BF
330
2BE
100
AcDbEntity
  8
1
  6
Continuous
 62
     2
100
AcDbLine
 10
-184.2884211592465
 20
-75.7499999359701
 30
0.0
 11
-184.2884211592465
 21
-45.24999993596056
 31
0.0
  0
LINE
  5
2C0
330
2BE
100
AcDbEntity
  8
1
  6
Continuous
 62
     2
100
AcDbLine
 10
-170.9473806778321
 20
-75.7499999359701
 30
0.0
 11
-185.0384211592465
 21
-75.7499999359701
 31
0.0
  0
LINE
  5
2C1
330
2BE
100
AcDbEntity
  8
1
  6
Continuous
 62
     2
100
AcDbLine
 10
-156.9884211592502
 20
-45.24999993596056
 30
0.0
 11
-185.0384211592465
 21
-45.24999993596056
 31
0.0
  0
SOLID
  5
2C2
330
2BE
100
AcDbEntity
  8
1
 62
     2
100
AcDbTrace
 10
-184.5188130300244
 20
-73.9999999359701
 30
0.0
 11
-184.0580292884686
 21
-73.9999999359701
 31
0.0
 12
-184.2884211592465
 22
-75.7499999359701
 32
0.0
 13
-184.2884211592465
 23
-75.7499999359701
 33
0.0
  0
SOLID
  5
2C3
330
2BE
100
AcDbEntity
  8
1
 62
     2
100
AcDbTrace
 10
-184.0580292884686
 20
-46.99999993596056
 30
0.0
 11
-184.5188130300244
 21
-46.99999993596056
 31
0.0
 12
-184.2884211592465
 22
-45.24999993596056
 32
0.0
 13
-184.2884211592465
 23
-45.24999993596056
 33
0.0
  0
MTEXT
  5
2C4
330
2BE
100
AcDbEntity
  8
1
 62
     3
100
AcDbMText
 10
-185.2134211592465
 20
-62.82669650602698
 30
0.0
 40
1.75
 41
0.0
 71
     7
 72
     1
  1
30,5
  7
CONVERTER_11
 11
0.0
 21
1.0
 31
0.0
 73
     1
 44
0.60024009603842
  0
ENDBLK
  5
2C6
330
2BE
100
AcDbEntity
  8
0
100
AcDbBlockEnd
  0
ENDSEC
  0
SECTION
  2
ENTITIES
  0
INSERT
  5
86
330
1F
100
AcDbEntity
  8
1
100
AcDbBlockReference
  2
1
 10
0.0
 20
0.0
 30
0.0
  0
ENDSEC
  0
SECTION
  2
OBJECTS
  0
DICTIONARY
  5
C
330
0
100
AcDbDictionary
281
     1
  3
ACAD_GROUP
350
D
  3
ACAD_LAYOUT
350
1A
  3
ACAD_MATERIAL
350
3B
  3
ACAD_MLEADERSTYLE
350
429
  3
ACAD_MLINESTYLE
350
17
  3
ACAD_PLOTSETTINGS
350
19
  3
ACAD_PLOTSTYLENAME
350
E
  3
ACAD_TABLESTYLE
350
428
  3
ACAD_VISUALSTYLE
350
2A
  0
DICTIONARY
  5
D
102
{ACAD_REACTORS
330
C
102
}
330
C
100
AcDbDictionary
281
     1
  0
DICTIONARY
  5
1A
102
{ACAD_REACTORS
330
C
102
}
330
C
100
AcDbDictionary
281
     1
  3
Layout1
350
1E
  3
Layout2
350
26
  3
Model
350
22
  0
DICTIONARY
  5
3B
102
{ACAD_REACTORS
330
C
102
}
330
C
100
AcDbDictionary
281
     1
  3
ByBlock
350
3D
  3
ByLayer
350
3C
  3
Global
350
3E
  0
DICTIONARY
  5
429
102
{ACAD_REACTORS
330
C
102
}
330
C
100
AcDbDictionary
281
     1
  0
DICTIONARY
  5
17
102
{ACAD_REACTORS
330
C
102
}
330
C
100
AcDbDictionary
281
     1
  3
Standard
350
18
  0
DICTIONARY
  5
19
102
{ACAD_REACTORS
330
C
102
}
330
C
100
AcDbDictionary
281
     1
  0
ACDBDICTIONARYWDFLT
  5
E
102
{ACAD_REACTORS
330
C
102
}
330
C
100
AcDbDictionary
281
     1
  3
Normal
350
F
100
AcDbDictionaryWithDefault
340
F
  0
DICTIONARY
  5
428
102
{ACAD_REACTORS
330
C
102
}
330
C
100
AcDbDictionary
281
     1
  0
DICTIONARY
  5
2A
102
{ACAD_REACTORS
330
C
102
}
330
C
100
AcDbDictionary
281
     1
  3
2dWireframe
350
2F
  3
3D Hidden
350
31
  3
3dWireframe
350
30
  3
Basic
350
32
  3
Brighten
350
36
  3
ColorChange
350
3A
  3
Conceptual
350
34
  3
Dim
350
35
  3
Facepattern
350
39
  3
Flat
350
2B
  3
FlatWithEdges
350
2C
  3
Gouraud
350
2D
  3
GouraudWithEdges
350
2E
  3
Linepattern
350
38
  3
Realistic
350
33
  3
Thicken
350
37
  0
LAYOUT
  5
1E
102
{ACAD_REACTORS
330
1A
102
}
330
1A
100
AcDbPlotSettings
  1

  2
none_device
  4

  6

 40
0.0
 41
0.0
 42
0.0
 43
0.0
 44
0.0
 45
0.0
 46
0.0
 47
0.0
 48
0.0
 49
0.0
140
0.0
141
0.0
142
1.0
143
1.0
 70
   688
 72
     0
 73
     0
 74
     5
  7

 75
    16
 76
     0
 77
     2
 78
   300
147
1.0
148
0.0
149
0.0
100
AcDbLayout
  1
Layout1
 70
     1
 71
     1
 10
0.0
 20
0.0
 11
12.0
 21
9.0
 12
0.0
 22
0.0
 32
0.0
 14
1.00000000000000E+20
 24
1.00000000000000E+20
 34
1.00000000000000E+20
 15
-1.00000000000000E+20
 25
-1.00000000000000E+20
 35
-1.00000000000000E+20
146
0.0
 13
0.0
 23
0.0
 33
0.0
 16
1.0
 26
0.0
 36
0.0
 17
0.0
 27
1.0
 37
0.0
 76
     0
330
1B
  0
LAYOUT
  5
26
102
{ACAD_REACTORS
330
1A
102
}
330
1A
100
AcDbPlotSettings
  1

  2
none_device
  4

  6

 40
0.0
 41
0.0
 42
0.0
 43
0.0
 44
0.0
 45
0.0
 46
0.0
 47
0.0
 48
0.0
 49
0.0
140
0.0
141
0.0
142
1.0
143
1.0
 70
   688
 72
     0
 73
     0
 74
     5
  7

 75
    16
 76
     0
 77
     2
 78
   300
147
1.0
148
0.0
149
0.0
100
AcDbLayout
  1
Layout2
 70
     1
 71
     2
 10
0.0
 20
0.0
 11
0.0
 21
0.0
 12
0.0
 22
0.0
 32
0.0
 14
0.0
 24
0.0
 34
0.0
 15
0.0
 25
0.0
 35
0.0
146
0.0
 13
0.0
 23
0.0
 33
0.0
 16
1.0
 26
0.0
 36
0.0
 17
0.0
 27
1.0
 37
0.0
 76
     0
330
23
  0
LAYOUT
  5
22
102
{ACAD_REACTORS
330
1A
102
}
330
1A
100
AcDbPlotSettings
  1

  2
none_device
  4

  6

 40
0.0
 41
0.0
 42
0.0
 43
0.0
 44
0.0
 45
0.0
 46
0.0
 47
0.0
 48
0.0
 49
0.0
140
0.0
141
0.0
142
1.0
143
1.0
 70
  1712
 72
     0
 73
     0
 74
     0
  7

 75
     0
 76
     0
 77
     2
 78
   300
147
1.0
148
0.0
149
0.0
100
AcDbLayout
  1
Model
 70
     1
 71
     0
 10
0.0
 20
0.0
 11
12.0
 21
9.0
 12
0.0
 22
0.0
 32
0.0
 14
-415.499999999989
 24
-267.0000000000051
 34
0.0
 15
-118.4999999999909
 25
-57.000000000005
 35
0.0
146
0.0
 13
0.0
 23
0.0
 33
0.0
 16
1.0
 26
0.0
 36
0.0
 17
0.0
 27
1.0
 37
0.0
 76
     0
330
1F
331
29
  0
MATERIAL
  5
3D
102
{ACAD_REACTORS
330
3B
102
}
102
{ACAD_XDICTIONARY
360
424
102
}
330
3B
100
AcDbMaterial
  1
ByBlock
  0
MATERIAL
  5
3C
102
{ACAD_REACTORS
330
3B
102
}
102
{ACAD_XDICTIONARY
360
422
102
}
330
3B
100
AcDbMaterial
  1
ByLayer
  0
MATERIAL
  5
3E
102
{ACAD_REACTORS
330
3B
102
}
102
{ACAD_XDICTIONARY
360
426
102
}
330
3B
100
AcDbMaterial
  1
Global
  0
MLINESTYLE
  5
18
102
{ACAD_REACTORS
330
17
102
}
330
17
100
AcDbMlineStyle
  2
Standard
 70
     0
  3

 62
   256
 51
90.0
 52
90.0
 71
     2
 49
0.5
 62
   256
  6
BYLAYER
 49
-0.5
 62
   256
  6
BYLAYER
  0
ACDBPLACEHOLDER
  5
F
102
{ACAD_REACTORS
330
E
102
}
330
E
  0
VISUALSTYLE
  5
2F
102
{ACAD_REACTORS
330
2A
102
}
102
{ACAD_XDICTIONARY
360
40A
102
}
330
2A
100
AcDbVisualStyle
  2
2dWireframe
 70
     4
 71
     0
 72
     2
 73
     0
 90
        0
 40
-0.6
 41
-30.0
 62
     5
 63
     7
421
 16777215
 74
     1
 91
        4
 64
     7
 65
   257
 75
     1
175
     1
 42
1.0
 92
        0
 66
   257
 43
1.0
 76
     1
 77
     6
 78
     2
 67
     7
 79
     5
170
     0
171
     0
290
     0
174
     0
 93
        1
 44
0.0
173
     0
291
     0
 45
0.0
1001
ACAD
1000
AcDbSavedByObjectVersion
1070
     0
  0
VISUALSTYLE
  5
31
102
{ACAD_REACTORS
330
2A
102
}
102
{ACAD_XDICTIONARY
360
40E
102
}
330
2A
100
AcDbVisualStyle
  2
3D Hidden
 70
     6
 71
     1
 72
     2
 73
     2
 90
        0
 40
-0.6
 41
-30.0
 62
     5
 63
     7
421
 16777215
 74
     2
 91
        2
 64
     7
 65
   257
 75
     2
175
     1
 42
40.0
 92
        0
 66
   257
 43
1.0
 76
     1
 77
     6
 78
     2
 67
     7
 79
     3
170
     0
171
     0
290
     0
174
     0
 93
        1
 44
0.0
173
     0
291
     0
 45
0.0
1001
ACAD
1000
AcDbSavedByObjectVersion
1070
     0
  0
VISUALSTYLE
  5
30
102
{ACAD_REACTORS
330
2A
102
}
102
{ACAD_XDICTIONARY
360
40C
102
}
330
2A
100
AcDbVisualStyle
  2
3dWireframe
 70
     5
 71
     0
 72
     2
 73
     0
 90
        0
 40
-0.6
 41
-30.0
 62
     5
 63
     7
421
 16777215
 74
     1
 91
        4
 64
     7
 65
   257
 75
     1
175
     1
 42
1.0
 92
        0
 66
   257
 43
1.0
 76
     1
 77
     6
 78
     2
 67
     7
 79
     5
170
     0
171
     0
290
     0
174
     0
 93
        1
 44
0.0
173
     0
291
     0
 45
0.0
1001
ACAD
1000
AcDbSavedByObjectVersion
1070
     0
  0
VISUALSTYLE
  5
32
102
{ACAD_REACTORS
330
2A
102
}
102
{ACAD_XDICTIONARY
360
410
102
}
330
2A
100
AcDbVisualStyle
  2
Basic
 70
     7
 71
     1
 72
     0
 73
     1
 90
        0
 40
-0.6
 41
-30.0
 62
     5
 63
     7
421
 16777215
 74
     0
 91
        4
 64
     7
 65
   257
 75
     1
175
     1
 42
1.0
 92
        8
 66
     7
 43
1.0
 76
     1
 77
     6
 78
     2
 67
     7
 79
     5
170
     0
171
     0
290
     0
174
     0
 93
        1
 44
0.0
173
     0
291
     1
 45
0.0
1001
ACAD
1000
AcDbSavedByObjectVersion
1070
     0
  0
VISUALSTYLE
  5
36
102
{ACAD_REACTORS
330
2A
102
}
102
{ACAD_XDICTIONARY
360
418
102
}
330
2A
100
AcDbVisualStyle
  2
Brighten
 70
    12
 71
     2
 72
     2
 73
     0
 90
        0
 40
-0.6
 41
-30.0
 62
     5
 63
     7
421
 16777215
 74
     1
 91
        4
 64
     7
 65
   257
 75
     1
175
     1
 42
1.0
 92
        8
 66
     7
 43
1.0
 76
     1
 77
     6
 78
     2
 67
     7
 79
     5
170
     0
171
     0
290
     0
174
     0
 93
        1
 44
50.0
173
     0
291
     1
 45
0.0
1001
ACAD
1000
AcDbSavedByObjectVersion
1070
     0
  0
VISUALSTYLE
  5
3A
102
{ACAD_REACTORS
330
2A
102
}
102
{ACAD_XDICTIONARY
360
420
102
}
330
2A
100
AcDbVisualStyle
  2
ColorChange
 70
    16
 71
     2
 72
     2
 73
     3
 90
        0
 40
-0.6
 41
-30.0
 62
     5
 63
     8
421
  8421504
 74
     1
 91
        4
 64
     7
 65
   257
 75
     1
175
     1
 42
1.0
 92
        8
 66
     8
424
  8421504
 43
1.0
 76
     1
 77
     6
 78
     2
 67
     7
 79
     5
170
     0
171
     0
290
     0
174
     0
 93
        1
 44
0.0
173
     0
291
     1
 45
0.0
1001
ACAD
1000
AcDbSavedByObjectVersion
1070
     0
  0
VISUALSTYLE
  5
34
102
{ACAD_REACTORS
330
2A
102
}
102
{ACAD_XDICTIONARY
360
414
102
}
330
2A
100
AcDbVisualStyle
  2
Conceptual
 70
     9
 71
     3
 72
     2
 73
     0
 90
        0
 40
-0.6
 41
-30.0
 62
     5
 63
     7
421
 16777215
 74
     2
 91
        2
 64
     7
 65
   257
 75
     1
175
     1
 42
40.0
 92
        8
 66
     7
 43
1.0
 76
     1
 77
     6
 78
     2
 67
     7
 79
     3
170
     0
171
     0
290
     0
174
     0
 93
        1
 44
0.0
173
     0
291
     0
 45
0.0
1001
ACAD
1000
AcDbSavedByObjectVersion
1070
     0
  0
VISUALSTYLE
  5
35
102
{ACAD_REACTORS
330
2A
102
}
102
{ACAD_XDICTIONARY
360
416
102
}
330
2A
100
AcDbVisualStyle
  2
Dim
 70
    11
 71
     2
 72
     2
 73
     0
 90
        0
 40
-0.6
 41
-30.0
 62
     5
 63
     7
421
 16777215
 74
     1
 91
        4
 64
     7
 65
   257
 75
     1
175
     1
 42
1.0
 92
        8
 66
     7
 43
1.0
 76
     1
 77
     6
 78
     2
 67
     7
 79
     5
170
     0
171
     0
290
     0
174
     0
 93
        1
 44
-50.0
173
     0
291
     1
 45
0.0
1001
ACAD
1000
AcDbSavedByObjectVersion
1070
     0
  0
VISUALSTYLE
  5
39
102
{ACAD_REACTORS
330
2A
102
}
102
{ACAD_XDICTIONARY
360
41E
102
}
330
2A
100
AcDbVisualStyle
  2
Facepattern
 70
    15
 71
     2
 72
     2
 73
     0
 90
        0
 40
-0.6
 41
-30.0
 62
     5
 63
     7
421
 16777215
 74
     1
 91
        4
 64
     7
 65
   257
 75
     1
175
     1
 42
1.0
 92
        8
 66
     7
 43
1.0
 76
     1
 77
     6
 78
     2
 67
     7
 79
     5
170
     0
171
     0
290
     0
174
     0
 93
        1
 44
0.0
173
     0
291
     1
 45
0.0
1001
ACAD
1000
AcDbSavedByObjectVersion
1070
     0
  0
VISUALSTYLE
  5
2B
102
{ACAD_REACTORS
330
2A
102
}
102
{ACAD_XDICTIONARY
360
402
102
}
330
2A
100
AcDbVisualStyle
  2
Flat
 70
     0
 71
     2
 72
     1
 73
     1
 90
        2
 40
-0.6
 41
30.0
 62
     5
 63
     7
421
 16777215
 74
     0
 91
        4
 64
     7
 65
   257
 75
     1
175
     1
 42
1.0
 92
        8
 66
     7
 43
1.0
 76
     1
 77
     6
 78
     2
 67
     7
 79
     5
170
     0
171
     0
290
     0
174
     0
 93
       13
 44
0.0
173
     0
291
     1
 45
0.0
1001
ACAD
1000
AcDbSavedByObjectVersion
1070
     0
  0
VISUALSTYLE
  5
2C
102
{ACAD_REACTORS
330
2A
102
}
102
{ACAD_XDICTIONARY
360
404
102
}
330
2A
100
AcDbVisualStyle
  2
FlatWithEdges
 70
     1
 71
     2
 72
     1
 73
     1
 90
        2
 40
-0.6
 41
30.0
 62
     5
 63
     7
421
 16777215
 74
     1
 91
        4
 64
     7
 65
   257
 75
     1
175
     1
 42
1.0
 92
        0
 66
   257
 43
1.0
 76
     1
 77
     6
 78
     2
 67
     7
 79
     5
170
     0
171
     0
290
     0
174
     0
 93
       13
 44
0.0
173
     0
291
     1
 45
0.0
1001
ACAD
1000
AcDbSavedByObjectVersion
1070
     0
  0
VISUALSTYLE
  5
2D
102
{ACAD_REACTORS
330
2A
102
}
102
{ACAD_XDICTIONARY
360
406
102
}
330
2A
100
AcDbVisualStyle
  2
Gouraud
 70
     2
 71
     2
 72
     2
 73
     1
 90
        2
 40
-0.6
 41
30.0
 62
     5
 63
     7
421
 16777215
 74
     0
 91
        4
 64
     7
 65
   257
 75
     1
175
     1
 42
1.0
 92
        0
 66
     7
 43
1.0
 76
     1
 77
     6
 78
     2
 67
     7
 79
     5
170
     0
171
     0
290
     0
174
     0
 93
       13
 44
0.0
173
     0
291
     1
 45
0.0
1001
ACAD
1000
AcDbSavedByObjectVersion
1070
     0
  0
VISUALSTYLE
  5
2E
102
{ACAD_REACTORS
330
2A
102
}
102
{ACAD_XDICTIONARY
360
408
102
}
330
2A
100
AcDbVisualStyle
  2
GouraudWithEdges
 70
     3
 71
     2
 72
     2
 73
     1
 90
        2
 40
-0.6
 41
30.0
 62
     5
 63
     7
421
 16777215
 74
     1
 91
        4
 64
     7
 65
   257
 75
     1
175
     1
 42
1.0
 92
        0
 66
   257
 43
1.0
 76
     1
 77
     6
 78
     2
 67
     7
 79
     5
170
     0
171
     0
290
     0
174
     0
 93
       13
 44
0.0
173
     0
291
     1
 45
0.0
1001
ACAD
1000
AcDbSavedByObjectVersion
1070
     0
  0
VISUALSTYLE
  5
38
102
{ACAD_REACTORS
330
2A
102
}
102
{ACAD_XDICTIONARY
360
41C
102
}
330
2A
100
AcDbVisualStyle
  2
Linepattern
 70
    14
 71
     2
 72
     2
 73
     0
 90
        0
 40
-0.6
 41
-30.0
 62
     5
 63
     7
421
 16777215
 74
     1
 91
        4
 64
     7
 65
   257
 75
     7
175
     7
 42
1.0
 92
        8
 66
     7
 43
1.0
 76
     1
 77
     6
 78
     2
 67
     7
 79
     5
170
     0
171
     0
290
     0
174
     0
 93
        1
 44
0.0
173
     0
291
     1
 45
0.0
1001
ACAD
1000
AcDbSavedByObjectVersion
1070
     0
  0
VISUALSTYLE
  5
33
102
{ACAD_REACTORS
330
2A
102
}
102
{ACAD_XDICTIONARY
360
412
102
}
330
2A
100
AcDbVisualStyle
  2
Realistic
 70
     8
 71
     2
 72
     2
 73
     0
 90
        0
 40
-0.6
 41
-30.0
 62
     5
 63
     7
421
 16777215
 74
     1
 91
        0
 64
     7
 65
   257
 75
     1
175
     1
 42
1.0
 92
        8
 66
     8
424
  7895160
 43
1.0
 76
     1
 77
     6
 78
     2
 67
     7
 79
     5
170
     0
171
     0
290
     0
174
     0
 93
       13
 44
0.0
173
     0
291
     0
 45
0.0
1001
ACAD
1000
AcDbSavedByObjectVersion
1070
     0
  0
VISUALSTYLE
  5
37
102
{ACAD_REACTORS
330
2A
102
}
102
{ACAD_XDICTIONARY
360
41A
102
}
330
2A
100
AcDbVisualStyle
  2
Thicken
 70
    13
 71
     2
 72
     2
 73
     0
 90
        0
 40
-0.6
 41
-30.0
 62
     5
 63
     7
421
 16777215
 74
     1
 91
        4
 64
     7
 65
   257
 75
     1
175
     1
 42
1.0
 92
       12
 66
     7
 43
1.0
 76
     1
 77
     6
 78
     2
 67
     7
 79
     5
170
     0
171
     0
290
     0
174
     0
 93
        1
 44
0.0
173
     0
291
     1
 45
0.0
1001
ACAD
1000
AcDbSavedByObjectVersion
1070
     0
  0
DICTIONARY
  5
424
330
3D
100
AcDbDictionary
280
     1
281
     1
  3
ACAD_XREC_ROUNDTRIP
360
425
  0
DICTIONARY
  5
422
330
3C
100
AcDbDictionary
280
     1
281
     1
  3
ACAD_XREC_ROUNDTRIP
360
423
  0
DICTIONARY
  5
426
330
3E
100
AcDbDictionary
280
     1
281
     1
  3
ACAD_XREC_ROUNDTRIP
360
427
  0
DICTIONARY
  5
40A
330
2F
100
AcDbDictionary
280
     1
281
     1
  3
ACAD_XREC_ROUNDTRIP
360
40B
  0
DICTIONARY
  5
40E
330
31
100
AcDbDictionary
280
     1
281
     1
  3
ACAD_XREC_ROUNDTRIP
360
40F
  0
DICTIONARY
  5
40C
330
30
100
AcDbDictionary
280
     1
281
     1
  3
ACAD_XREC_ROUNDTRIP
360
40D
  0
DICTIONARY
  5
410
330
32
100
AcDbDictionary
280
     1
281
     1
  3
ACAD_XREC_ROUNDTRIP
360
411
  0
DICTIONARY
  5
418
330
36
100
AcDbDictionary
280
     1
281
     1
  3
ACAD_XREC_ROUNDTRIP
360
419
  0
DICTIONARY
  5
420
330
3A
100
AcDbDictionary
280
     1
281
     1
  3
ACAD_XREC_ROUNDTRIP
360
421
  0
DICTIONARY
  5
414
330
34
100
AcDbDictionary
280
     1
281
     1
  3
ACAD_XREC_ROUNDTRIP
360
415
  0
DICTIONARY
  5
416
330
35
100
AcDbDictionary
280
     1
281
     1
  3
ACAD_XREC_ROUNDTRIP
360
417
  0
DICTIONARY
  5
41E
330
39
100
AcDbDictionary
280
     1
281
     1
  3
ACAD_XREC_ROUNDTRIP
360
41F
  0
DICTIONARY
  5
402
330
2B
100
AcDbDictionary
280
     1
281
     1
  3
ACAD_XREC_ROUNDTRIP
360
403
  0
DICTIONARY
  5
404
330
2C
100
AcDbDictionary
280
     1
281
     1
  3
ACAD_XREC_ROUNDTRIP
360
405
  0
DICTIONARY
  5
406
330
2D
100
AcDbDictionary
280
     1
281
     1
  3
ACAD_XREC_ROUNDTRIP
360
407
  0
DICTIONARY
  5
408
330
2E
100
AcDbDictionary
280
     1
281
     1
  3
ACAD_XREC_ROUNDTRIP
360
409
  0
DICTIONARY
  5
41C
330
38
100
AcDbDictionary
280
     1
281
     1
  3
ACAD_XREC_ROUNDTRIP
360
41D
  0
DICTIONARY
  5
412
330
33
100
AcDbDictionary
280
     1
281
     1
  3
ACAD_XREC_ROUNDTRIP
360
413
  0
DICTIONARY
  5
41A
330
37
100
AcDbDictionary
280
     1
281
     1
  3
ACAD_XREC_ROUNDTRIP
360
41B
  0
XRECORD
  5
425
102
{ACAD_REACTORS
330
424
102
}
330
424
100
AcDbXrecord
280
     1
102
MATERIAL
148
0.0
149
0.0
149
0.0
 93
        0
 94
      127
282
     0
 72
     1
 77
     1
171
     1
175
     1
179
     1
273
     0
  0
XRECORD
  5
423
102
{ACAD_REACTORS
330
422
102
}
330
422
100
AcDbXrecord
280
     1
102
MATERIAL
148
0.0
149
0.0
149
0.0
 93
        0
 94
      127
282
     0
 72
     1
 77
     1
171
     1
175
     1
179
     1
273
     0
  0
XRECORD
  5
427
102
{ACAD_REACTORS
330
426
102
}
330
426
100
AcDbXrecord
280
     1
102
MATERIAL
148
0.0
149
0.0
149
0.0
 93
        0
 94
      127
282
     0
 72
     1
 77
     1
171
     1
175
     1
179
     1
273
     0
  0
XRECORD
  5
40B
102
{ACAD_REACTORS
330
40A
102
}
330
40A
100
AcDbXrecord
280
     1
102
RTVSPropertyOp0
 70
     1
102
RTVSPropertyOp1
 70
     1
102
RTVSPropertyOp2
 70
     1
102
RTVSPropertyOp3
 70
     1
102
RTVSPropertyOp4
 70
     1
102
RTVSPropertyOp5
 70
     1
102
RTVSPropertyOp6
 70
     1
102
RTVSPropertyOp7
 70
     1
102
RTVSPropertyOp8
 70
     1
102
RTVSPropertyOp9
 70
     1
102
RTVSPropertyOp10
 70
     1
102
RTVSPropertyOp11
 70
     1
102
RTVSPropertyOp12
 70
     1
102
RTVSPropertyOp13
 70
     1
102
RTVSPropertyOp14
 70
     1
102
RTVSPropertyOp15
 70
     1
102
RTVSPropertyOp16
 70
     1
102
RTVSPropertyOp17
 70
     1
102
RTVSPropertyOp18
 70
     1
102
RTVSPropertyOp19
 70
     1
102
RTVSPropertyOp20
 70
     1
102
RTVSPropertyOp21
 70
     1
102
RTVSPropertyOp22
 70
     1
102
RTVSPropertyOp23
 70
     1
102
RTVSPropertyOp24
 70
     1
102
RTVSPropertyOp25
 70
     1
102
RTVSPropertyOp26
 70
     1
102
RTVSPropertyOp27
 70
     1
102
RTVSPropertyOp28
 70
     1
102
RTVSPropertyOp29
 70
     1
102
RTVSPropertyOp30
 70
     1
102
RTVSPropertyOp31
 70
     1
102
RTVSPropertyOp32
 70
     1
  0
XRECORD
  5
40F
102
{ACAD_REACTORS
330
40E
102
}
330
40E
100
AcDbXrecord
280
     1
102
RTVSPropertyOp0
 70
     1
102
RTVSPropertyOp1
 70
     1
102
RTVSPropertyOp2
 70
     1
102
RTVSPropertyOp3
 70
     1
102
RTVSPropertyOp4
 70
     1
102
RTVSPropertyOp5
 70
     1
102
RTVSPropertyOp6
 70
     1
102
RTVSPropertyOp7
 70
     1
102
RTVSPropertyOp8
 70
     1
102
RTVSPropertyOp9
 70
     1
102
RTVSPropertyOp10
 70
     1
102
RTVSPropertyOp11
 70
     1
102
RTVSPropertyOp12
 70
     1
102
RTVSPropertyOp13
 70
     1
102
RTVSPropertyOp14
 70
     1
102
RTVSPropertyOp15
 70
     1
102
RTVSPropertyOp16
 70
     1
102
RTVSPropertyOp17
 70
     1
102
RTVSPropertyOp18
 70
     1
102
RTVSPropertyOp19
 70
     1
102
RTVSPropertyOp20
 70
     1
102
RTVSPropertyOp21
 70
     1
102
RTVSPropertyOp22
 70
     1
102
RTVSPropertyOp23
 70
     1
102
RTVSPropertyOp24
 70
     1
102
RTVSPropertyOp25
 70
     1
102
RTVSPropertyOp26
 70
     1
102
RTVSPropertyOp27
 70
     1
102
RTVSPropertyOp28
 70
     1
102
RTVSPropertyOp29
 70
     1
102
RTVSPropertyOp30
 70
     1
102
RTVSPropertyOp31
 70
     1
102
RTVSPropertyOp32
 70
     1
  0
XRECORD
  5
40D
102
{ACAD_REACTORS
330
40C
102
}
330
40C
100
AcDbXrecord
280
     1
102
RTVSPropertyOp0
 70
     1
102
RTVSPropertyOp1
 70
     1
102
RTVSPropertyOp2
 70
     1
102
RTVSPropertyOp3
 70
     1
102
RTVSPropertyOp4
 70
     1
102
RTVSPropertyOp5
 70
     1
102
RTVSPropertyOp6
 70
     1
102
RTVSPropertyOp7
 70
     1
102
RTVSPropertyOp8
 70
     1
102
RTVSPropertyOp9
 70
     1
102
RTVSPropertyOp10
 70
     1
102
RTVSPropertyOp11
 70
     1
102
RTVSPropertyOp12
 70
     1
102
RTVSPropertyOp13
 70
     1
102
RTVSPropertyOp14
 70
     1
102
RTVSPropertyOp15
 70
     1
102
RTVSPropertyOp16
 70
     1
102
RTVSPropertyOp17
 70
     1
102
RTVSPropertyOp18
 70
     1
102
RTVSPropertyOp19
 70
     1
102
RTVSPropertyOp20
 70
     1
102
RTVSPropertyOp21
 70
     1
102
RTVSPropertyOp22
 70
     1
102
RTVSPropertyOp23
 70
     1
102
RTVSPropertyOp24
 70
     1
102
RTVSPropertyOp25
 70
     1
102
RTVSPropertyOp26
 70
     1
102
RTVSPropertyOp27
 70
     1
102
RTVSPropertyOp28
 70
     1
102
RTVSPropertyOp29
 70
     1
102
RTVSPropertyOp30
 70
     1
102
RTVSPropertyOp31
 70
     1
102
RTVSPropertyOp32
 70
     1
  0
XRECORD
  5
411
102
{ACAD_REACTORS
330
410
102
}
330
410
100
AcDbXrecord
280
     1
102
RTVSPropertyOp0
 70
     1
102
RTVSPropertyOp1
 70
     1
102
RTVSPropertyOp2
 70
     1
102
RTVSPropertyOp3
 70
     1
102
RTVSPropertyOp4
 70
     1
102
RTVSPropertyOp5
 70
     1
102
RTVSPropertyOp6
 70
     1
102
RTVSPropertyOp7
 70
     1
102
RTVSPropertyOp8
 70
     1
102
RTVSPropertyOp9
 70
     1
102
RTVSPropertyOp10
 70
     1
102
RTVSPropertyOp11
 70
     1
102
RTVSPropertyOp12
 70
     1
102
RTVSPropertyOp13
 70
     1
102
RTVSPropertyOp14
 70
     1
102
RTVSPropertyOp15
 70
     1
102
RTVSPropertyOp16
 70
     1
102
RTVSPropertyOp17
 70
     1
102
RTVSPropertyOp18
 70
     1
102
RTVSPropertyOp19
 70
     1
102
RTVSPropertyOp20
 70
     1
102
RTVSPropertyOp21
 70
     1
102
RTVSPropertyOp22
 70
     1
102
RTVSPropertyOp23
 70
     1
102
RTVSPropertyOp24
 70
     1
102
RTVSPropertyOp25
 70
     1
102
RTVSPropertyOp26
 70
     1
102
RTVSPropertyOp27
 70
     1
102
RTVSPropertyOp28
 70
     1
102
RTVSPropertyOp29
 70
     1
102
RTVSPropertyOp30
 70
     1
102
RTVSPropertyOp31
 70
     1
102
RTVSPropertyOp32
 70
     1
  0
XRECORD
  5
419
102
{ACAD_REACTORS
330
418
102
}
330
418
100
AcDbXrecord
280
     1
102
RTVSPropertyOp0
 70
     1
102
RTVSPropertyOp1
 70
     1
102
RTVSPropertyOp2
 70
     1
102
RTVSPropertyOp3
 70
     1
102
RTVSPropertyOp4
 70
     1
102
RTVSPropertyOp5
 70
     1
102
RTVSPropertyOp6
 70
     1
102
RTVSPropertyOp7
 70
     1
102
RTVSPropertyOp8
 70
     1
102
RTVSPropertyOp9
 70
     1
102
RTVSPropertyOp10
 70
     1
102
RTVSPropertyOp11
 70
     1
102
RTVSPropertyOp12
 70
     1
102
RTVSPropertyOp13
 70
     1
102
RTVSPropertyOp14
 70
     1
102
RTVSPropertyOp15
 70
     1
102
RTVSPropertyOp16
 70
     1
102
RTVSPropertyOp17
 70
     1
102
RTVSPropertyOp18
 70
     1
102
RTVSPropertyOp19
 70
     1
102
RTVSPropertyOp20
 70
     1
102
RTVSPropertyOp21
 70
     1
102
RTVSPropertyOp22
 70
     1
102
RTVSPropertyOp23
 70
     1
102
RTVSPropertyOp24
 70
     1
102
RTVSPropertyOp25
 70
     1
102
RTVSPropertyOp26
 70
     1
102
RTVSPropertyOp27
 70
     1
102
RTVSPropertyOp28
 70
     1
102
RTVSPropertyOp29
 70
     1
102
RTVSPropertyOp30
 70
     1
102
RTVSPropertyOp31
 70
     1
102
RTVSPropertyOp32
 70
     1
  0
XRECORD
  5
421
102
{ACAD_REACTORS
330
420
102
}
330
420
100
AcDbXrecord
280
     1
102
RTVSPropertyOp0
 70
     1
102
RTVSPropertyOp1
 70
     1
102
RTVSPropertyOp2
 70
     1
102
RTVSPropertyOp3
 70
     1
102
RTVSPropertyOp4
 70
     1
102
RTVSPropertyOp5
 70
     1
102
RTVSPropertyOp6
 70
     1
102
RTVSPropertyOp7
 70
     1
102
RTVSPropertyOp8
 70
     1
102
RTVSPropertyOp9
 70
     1
102
RTVSPropertyOp10
 70
     1
102
RTVSPropertyOp11
 70
     1
102
RTVSPropertyOp12
 70
     1
102
RTVSPropertyOp13
 70
     1
102
RTVSPropertyOp14
 70
     1
102
RTVSPropertyOp15
 70
     1
102
RTVSPropertyOp16
 70
     1
102
RTVSPropertyOp17
 70
     1
102
RTVSPropertyOp18
 70
     1
102
RTVSPropertyOp19
 70
     1
102
RTVSPropertyOp20
 70
     1
102
RTVSPropertyOp21
 70
     1
102
RTVSPropertyOp22
 70
     1
102
RTVSPropertyOp23
 70
     1
102
RTVSPropertyOp24
 70
     1
102
RTVSPropertyOp25
 70
     1
102
RTVSPropertyOp26
 70
     1
102
RTVSPropertyOp27
 70
     1
102
RTVSPropertyOp28
 70
     1
102
RTVSPropertyOp29
 70
     1
102
RTVSPropertyOp30
 70
     1
102
RTVSPropertyOp31
 70
     1
102
RTVSPropertyOp32
 70
     1
  0
XRECORD
  5
415
102
{ACAD_REACTORS
330
414
102
}
330
414
100
AcDbXrecord
280
     1
102
RTVSPropertyOp0
 70
     1
102
RTVSPropertyOp1
 70
     1
102
RTVSPropertyOp2
 70
     1
102
RTVSPropertyOp3
 70
     1
102
RTVSPropertyOp4
 70
     1
102
RTVSPropertyOp5
 70
     1
102
RTVSPropertyOp6
 70
     1
102
RTVSPropertyOp7
 70
     1
102
RTVSPropertyOp8
 70
     1
102
RTVSPropertyOp9
 70
     1
102
RTVSPropertyOp10
 70
     1
102
RTVSPropertyOp11
 70
     1
102
RTVSPropertyOp12
 70
     1
102
RTVSPropertyOp13
 70
     1
102
RTVSPropertyOp14
 70
     1
102
RTVSPropertyOp15
 70
     1
102
RTVSPropertyOp16
 70
     1
102
RTVSPropertyOp17
 70
     1
102
RTVSPropertyOp18
 70
     1
102
RTVSPropertyOp19
 70
     1
102
RTVSPropertyOp20
 70
     1
102
RTVSPropertyOp21
 70
     1
102
RTVSPropertyOp22
 70
     1
102
RTVSPropertyOp23
 70
     1
102
RTVSPropertyOp24
 70
     1
102
RTVSPropertyOp25
 70
     1
102
RTVSPropertyOp26
 70
     1
102
RTVSPropertyOp27
 70
     1
102
RTVSPropertyOp28
 70
     1
102
RTVSPropertyOp29
 70
     1
102
RTVSPropertyOp30
 70
     1
102
RTVSPropertyOp31
 70
     1
102
RTVSPropertyOp32
 70
     1
  0
XRECORD
  5
417
102
{ACAD_REACTORS
330
416
102
}
330
416
100
AcDbXrecord
280
     1
102
RTVSPropertyOp0
 70
     1
102
RTVSPropertyOp1
 70
     1
102
RTVSPropertyOp2
 70
     1
102
RTVSPropertyOp3
 70
     1
102
RTVSPropertyOp4
 70
     1
102
RTVSPropertyOp5
 70
     1
102
RTVSPropertyOp6
 70
     1
102
RTVSPropertyOp7
 70
     1
102
RTVSPropertyOp8
 70
     1
102
RTVSPropertyOp9
 70
     1
102
RTVSPropertyOp10
 70
     1
102
RTVSPropertyOp11
 70
     1
102
RTVSPropertyOp12
 70
     1
102
RTVSPropertyOp13
 70
     1
102
RTVSPropertyOp14
 70
     1
102
RTVSPropertyOp15
 70
     1
102
RTVSPropertyOp16
 70
     1
102
RTVSPropertyOp17
 70
     1
102
RTVSPropertyOp18
 70
     1
102
RTVSPropertyOp19
 70
     1
102
RTVSPropertyOp20
 70
     1
102
RTVSPropertyOp21
 70
     1
102
RTVSPropertyOp22
 70
     1
102
RTVSPropertyOp23
 70
     1
102
RTVSPropertyOp24
 70
     1
102
RTVSPropertyOp25
 70
     1
102
RTVSPropertyOp26
 70
     1
102
RTVSPropertyOp27
 70
     1
102
RTVSPropertyOp28
 70
     1
102
RTVSPropertyOp29
 70
     1
102
RTVSPropertyOp30
 70
     1
102
RTVSPropertyOp31
 70
     1
102
RTVSPropertyOp32
 70
     1
  0
XRECORD
  5
41F
102
{ACAD_REACTORS
330
41E
102
}
330
41E
100
AcDbXrecord
280
     1
102
RTVSPropertyOp0
 70
     1
102
RTVSPropertyOp1
 70
     1
102
RTVSPropertyOp2
 70
     1
102
RTVSPropertyOp3
 70
     1
102
RTVSPropertyOp4
 70
     1
102
RTVSPropertyOp5
 70
     1
102
RTVSPropertyOp6
 70
     1
102
RTVSPropertyOp7
 70
     1
102
RTVSPropertyOp8
 70
     1
102
RTVSPropertyOp9
 70
     1
102
RTVSPropertyOp10
 70
     1
102
RTVSPropertyOp11
 70
     1
102
RTVSPropertyOp12
 70
     1
102
RTVSPropertyOp13
 70
     1
102
RTVSPropertyOp14
 70
     1
102
RTVSPropertyOp15
 70
     1
102
RTVSPropertyOp16
 70
     1
102
RTVSPropertyOp17
 70
     1
102
RTVSPropertyOp18
 70
     1
102
RTVSPropertyOp19
 70
     1
102
RTVSPropertyOp20
 70
     1
102
RTVSPropertyOp21
 70
     1
102
RTVSPropertyOp22
 70
     1
102
RTVSPropertyOp23
 70
     1
102
RTVSPropertyOp24
 70
     1
102
RTVSPropertyOp25
 70
     1
102
RTVSPropertyOp26
 70
     1
102
RTVSPropertyOp27
 70
     1
102
RTVSPropertyOp28
 70
     1
102
RTVSPropertyOp29
 70
     1
102
RTVSPropertyOp30
 70
     1
102
RTVSPropertyOp31
 70
     1
102
RTVSPropertyOp32
 70
     1
  0
XRECORD
  5
403
102
{ACAD_REACTORS
330
402
102
}
330
402
100
AcDbXrecord
280
     1
102
RTVSPropertyOp0
 70
     1
102
RTVSPropertyOp1
 70
     1
102
RTVSPropertyOp2
 70
     1
102
RTVSPropertyOp3
 70
     1
102
RTVSPropertyOp4
 70
     1
102
RTVSPropertyOp5
 70
     1
102
RTVSPropertyOp6
 70
     1
102
RTVSPropertyOp7
 70
     1
102
RTVSPropertyOp8
 70
     1
102
RTVSPropertyOp9
 70
     1
102
RTVSPropertyOp10
 70
     1
102
RTVSPropertyOp11
 70
     1
102
RTVSPropertyOp12
 70
     1
102
RTVSPropertyOp13
 70
     1
102
RTVSPropertyOp14
 70
     1
102
RTVSPropertyOp15
 70
     1
102
RTVSPropertyOp16
 70
     1
102
RTVSPropertyOp17
 70
     1
102
RTVSPropertyOp18
 70
     1
102
RTVSPropertyOp19
 70
     1
102
RTVSPropertyOp20
 70
     1
102
RTVSPropertyOp21
 70
     1
102
RTVSPropertyOp22
 70
     1
102
RTVSPropertyOp23
 70
     1
102
RTVSPropertyOp24
 70
     1
102
RTVSPropertyOp25
 70
     1
102
RTVSPropertyOp26
 70
     1
102
RTVSPropertyOp27
 70
     1
102
RTVSPropertyOp28
 70
     1
102
RTVSPropertyOp29
 70
     1
102
RTVSPropertyOp30
 70
     1
102
RTVSPropertyOp31
 70
     1
102
RTVSPropertyOp32
 70
     1
  0
XRECORD
  5
405
102
{ACAD_REACTORS
330
404
102
}
330
404
100
AcDbXrecord
280
     1
102
RTVSPropertyOp0
 70
     1
102
RTVSPropertyOp1
 70
     1
102
RTVSPropertyOp2
 70
     1
102
RTVSPropertyOp3
 70
     1
102
RTVSPropertyOp4
 70
     1
102
RTVSPropertyOp5
 70
     1
102
RTVSPropertyOp6
 70
     1
102
RTVSPropertyOp7
 70
     1
102
RTVSPropertyOp8
 70
     1
102
RTVSPropertyOp9
 70
     1
102
RTVSPropertyOp10
 70
     1
102
RTVSPropertyOp11
 70
     1
102
RTVSPropertyOp12
 70
     1
102
RTVSPropertyOp13
 70
     1
102
RTVSPropertyOp14
 70
     1
102
RTVSPropertyOp15
 70
     1
102
RTVSPropertyOp16
 70
     1
102
RTVSPropertyOp17
 70
     1
102
RTVSPropertyOp18
 70
     1
102
RTVSPropertyOp19
 70
     1
102
RTVSPropertyOp20
 70
     1
102
RTVSPropertyOp21
 70
     1
102
RTVSPropertyOp22
 70
     1
102
RTVSPropertyOp23
 70
     1
102
RTVSPropertyOp24
 70
     1
102
RTVSPropertyOp25
 70
     1
102
RTVSPropertyOp26
 70
     1
102
RTVSPropertyOp27
 70
     1
102
RTVSPropertyOp28
 70
     1
102
RTVSPropertyOp29
 70
     1
102
RTVSPropertyOp30
 70
     1
102
RTVSPropertyOp31
 70
     1
102
RTVSPropertyOp32
 70
     1
  0
XRECORD
  5
407
102
{ACAD_REACTORS
330
406
102
}
330
406
100
AcDbXrecord
280
     1
102
RTVSPropertyOp0
 70
     1
102
RTVSPropertyOp1
 70
     1
102
RTVSPropertyOp2
 70
     1
102
RTVSPropertyOp3
 70
     1
102
RTVSPropertyOp4
 70
     1
102
RTVSPropertyOp5
 70
     1
102
RTVSPropertyOp6
 70
     1
102
RTVSPropertyOp7
 70
     1
102
RTVSPropertyOp8
 70
     1
102
RTVSPropertyOp9
 70
     1
102
RTVSPropertyOp10
 70
     1
102
RTVSPropertyOp11
 70
     1
102
RTVSPropertyOp12
 70
     1
102
RTVSPropertyOp13
 70
     1
102
RTVSPropertyOp14
 70
     1
102
RTVSPropertyOp15
 70
     1
102
RTVSPropertyOp16
 70
     1
102
RTVSPropertyOp17
 70
     1
102
RTVSPropertyOp18
 70
     1
102
RTVSPropertyOp19
 70
     1
102
RTVSPropertyOp20
 70
     1
102
RTVSPropertyOp21
 70
     1
102
RTVSPropertyOp22
 70
     1
102
RTVSPropertyOp23
 70
     1
102
RTVSPropertyOp24
 70
     1
102
RTVSPropertyOp25
 70
     1
102
RTVSPropertyOp26
 70
     1
102
RTVSPropertyOp27
 70
     1
102
RTVSPropertyOp28
 70
     1
102
RTVSPropertyOp29
 70
     1
102
RTVSPropertyOp30
 70
     1
102
RTVSPropertyOp31
 70
     1
102
RTVSPropertyOp32
 70
     1
  0
XRECORD
  5
409
102
{ACAD_REACTORS
330
408
102
}
330
408
100
AcDbXrecord
280
     1
102
RTVSPropertyOp0
 70
     1
102
RTVSPropertyOp1
 70
     1
102
RTVSPropertyOp2
 70
     1
102
RTVSPropertyOp3
 70
     1
102
RTVSPropertyOp4
 70
     1
102
RTVSPropertyOp5
 70
     1
102
RTVSPropertyOp6
 70
     1
102
RTVSPropertyOp7
 70
     1
102
RTVSPropertyOp8
 70
     1
102
RTVSPropertyOp9
 70
     1
102
RTVSPropertyOp10
 70
     1
102
RTVSPropertyOp11
 70
     1
102
RTVSPropertyOp12
 70
     1
102
RTVSPropertyOp13
 70
     1
102
RTVSPropertyOp14
 70
     1
102
RTVSPropertyOp15
 70
     1
102
RTVSPropertyOp16
 70
     1
102
RTVSPropertyOp17
 70
     1
102
RTVSPropertyOp18
 70
     1
102
RTVSPropertyOp19
 70
     1
102
RTVSPropertyOp20
 70
     1
102
RTVSPropertyOp21
 70
     1
102
RTVSPropertyOp22
 70
     1
102
RTVSPropertyOp23
 70
     1
102
RTVSPropertyOp24
 70
     1
102
RTVSPropertyOp25
 70
     1
102
RTVSPropertyOp26
 70
     1
102
RTVSPropertyOp27
 70
     1
102
RTVSPropertyOp28
 70
     1
102
RTVSPropertyOp29
 70
     1
102
RTVSPropertyOp30
 70
     1
102
RTVSPropertyOp31
 70
     1
102
RTVSPropertyOp32
 70
     1
  0
XRECORD
  5
41D
102
{ACAD_REACTORS
330
41C
102
}
330
41C
100
AcDbXrecord
280
     1
102
RTVSPropertyOp0
 70
     1
102
RTVSPropertyOp1
 70
     1
102
RTVSPropertyOp2
 70
     1
102
RTVSPropertyOp3
 70
     1
102
RTVSPropertyOp4
 70
     1
102
RTVSPropertyOp5
 70
     1
102
RTVSPropertyOp6
 70
     1
102
RTVSPropertyOp7
 70
     1
102
RTVSPropertyOp8
 70
     1
102
RTVSPropertyOp9
 70
     1
102
RTVSPropertyOp10
 70
     1
102
RTVSPropertyOp11
 70
     1
102
RTVSPropertyOp12
 70
     1
102
RTVSPropertyOp13
 70
     1
102
RTVSPropertyOp14
 70
     1
102
RTVSPropertyOp15
 70
     1
102
RTVSPropertyOp16
 70
     1
102
RTVSPropertyOp17
 70
     1
102
RTVSPropertyOp18
 70
     1
102
RTVSPropertyOp19
 70
     1
102
RTVSPropertyOp20
 70
     1
102
RTVSPropertyOp21
 70
     1
102
RTVSPropertyOp22
 70
     1
102
RTVSPropertyOp23
 70
     1
102
RTVSPropertyOp24
 70
     1
102
RTVSPropertyOp25
 70
     1
102
RTVSPropertyOp26
 70
     1
102
RTVSPropertyOp27
 70
     1
102
RTVSPropertyOp28
 70
     1
102
RTVSPropertyOp29
 70
     1
102
RTVSPropertyOp30
 70
     1
102
RTVSPropertyOp31
 70
     1
102
RTVSPropertyOp32
 70
     1
  0
XRECORD
  5
413
102
{ACAD_REACTORS
330
412
102
}
330
412
100
AcDbXrecord
280
     1
102
RTVSPropertyOp0
 70
     1
102
RTVSPropertyOp1
 70
     1
102
RTVSPropertyOp2
 70
     1
102
RTVSPropertyOp3
 70
     1
102
RTVSPropertyOp4
 70
     1
102
RTVSPropertyOp5
 70
     1
102
RTVSPropertyOp6
 70
     1
102
RTVSPropertyOp7
 70
     1
102
RTVSPropertyOp8
 70
     1
102
RTVSPropertyOp9
 70
     1
102
RTVSPropertyOp10
 70
     1
102
RTVSPropertyOp11
 70
     1
102
RTVSPropertyOp12
 70
     1
102
RTVSPropertyOp13
 70
     1
102
RTVSPropertyOp14
 70
     1
102
RTVSPropertyOp15
 70
     1
102
RTVSPropertyOp16
 70
     1
102
RTVSPropertyOp17
 70
     1
102
RTVSPropertyOp18
 70
     1
102
RTVSPropertyOp19
 70
     1
102
RTVSPropertyOp20
 70
     1
102
RTVSPropertyOp21
 70
     1
102
RTVSPropertyOp22
 70
     1
102
RTVSPropertyOp23
 70
     1
102
RTVSPropertyOp24
 70
     1
102
RTVSPropertyOp25
 70
     1
102
RTVSPropertyOp26
 70
     1
102
RTVSPropertyOp27
 70
     1
102
RTVSPropertyOp28
 70
     1
102
RTVSPropertyOp29
 70
     1
102
RTVSPropertyOp30
 70
     1
102
RTVSPropertyOp31
 70
     1
102
RTVSPropertyOp32
 70
     1
  0
XRECORD
  5
41B
102
{ACAD_REACTORS
330
41A
102
}
330
41A
100
AcDbXrecord
280
     1
102
RTVSPropertyOp0
 70
     1
102
RTVSPropertyOp1
 70
     1
102
RTVSPropertyOp2
 70
     1
102
RTVSPropertyOp3
 70
     1
102
RTVSPropertyOp4
 70
     1
102
RTVSPropertyOp5
 70
     1
102
RTVSPropertyOp6
 70
     1
102
RTVSPropertyOp7
 70
     1
102
RTVSPropertyOp8
 70
     1
102
RTVSPropertyOp9
 70
     1
102
RTVSPropertyOp10
 70
     1
102
RTVSPropertyOp11
 70
     1
102
RTVSPropertyOp12
 70
     1
102
RTVSPropertyOp13
 70
     1
102
RTVSPropertyOp14
 70
     1
102
RTVSPropertyOp15
 70
     1
102
RTVSPropertyOp16
 70
     1
102
RTVSPropertyOp17
 70
     1
102
RTVSPropertyOp18
 70
     1
102
RTVSPropertyOp19
 70
     1
102
RTVSPropertyOp20
 70
     1
102
RTVSPropertyOp21
 70
     1
102
RTVSPropertyOp22
 70
     1
102
RTVSPropertyOp23
 70
     1
102
RTVSPropertyOp24
 70
     1
102
RTVSPropertyOp25
 70
     1
102
RTVSPropertyOp26
 70
     1
102
RTVSPropertyOp27
 70
     1
102
RTVSPropertyOp28
 70
     1
102
RTVSPropertyOp29
 70
     1
102
RTVSPropertyOp30
 70
     1
102
RTVSPropertyOp31
 70
     1
102
RTVSPropertyOp32
 70
     1
  0
ENDSEC
  0
EOF
